Поиск

1968 Miles Davis - Filles De Kilimanjaro (2014) {Columbia, Legacy} [24-88,2]

1968 Miles Davis - Filles De Kilimanjaro (2014) {Columbia, Legacy} [24-88,2]
Стили:
Издатель (лейбл):
Треклист:

Формат записи/Источник записи: [TR24][OF]
Наличие водяных знаков: Нет
Год издания/переиздания диска: 1968/2014
Продолжительность: 56:33
Наличие сканов в содержимом раздачи: Только обложка альбома
Источник: WRZmusic
Магазин: qobuz.com
Контейнер: FLAC (*.flac)
Тип рипа: tracks
Разрядность: 24/88,2
Формат: PCM
Количество каналов: 2.0

Треклист:
01. Frelon brun (Brown Hornet) (5:41)
02. Tout de suite (Right Away) (14:07)
03. Petits Machins (Little Stuff) (8:08)
04. Filles de Kilimanjaro (Girls Of Kilimanjaro) (12:03)
05. Mademoiselle Mabry (Miss Mabry) (16:34)

 
Лог проверки качества
foobar2000 1.3.9 / Dynamic Range Meter 1.1.1
log date: 2018-07-05 10:52:23
--------------------------------------------------------------------------------
Analyzed: Miles Davis / Filles De Kilimanjaro
--------------------------------------------------------------------------------
DR         Peak         RMS     Duration Track
--------------------------------------------------------------------------------
DR12      -0.49 dB   -16.57 dB      5:41 01-Frelon brun (Brown Hornet)
DR14      -0.49 dB   -18.94 dB     14:07 02-Tout de suite (Right Away)
DR13      -0.49 dB   -15.51 dB      8:08 03-Petits Machins (Little Stuff)
DR14      -0.62 dB   -16.96 dB     12:03 04-Filles de Kilimanjaro (Girls Of Kilimanjaro)
DR14      -0.49 dB   -19.08 dB     16:34 05-Mademoiselle Mabry (Miss Mabry)
--------------------------------------------------------------------------------
Number of tracks:  5
Official DR value: DR13
Samplerate:        88200 Hz
Channels:          2
Bits per sample:   24
Bitrate:           2717 kbps
Codec:             FLAC
================================================================================

 

Скачивание доступно после регистрации!!
Приватный:
Нет (DHT включён)
Размер:
1.12 Гб (1,197,705,283 байт) » файлов: 8
Участники:
3 раздают, 0 качают (3 участников всего)
Внешние участники:
5 раздают, 1 качают (6 участников всего) [ Обновить ]
17:07
103
Нет комментариев. Ваш будет первым!