Поиск

2011 Pat Metheny - What's It All About {Nonesuch} [24-96]

2011 Pat Metheny - What's It All About {Nonesuch} [24-96]
Издатель (лейбл):
Носитель:
WEB
Формат:
PCM
Тип рипа:
tracks
Контейнер:
FLAC (*.flac)
Количество каналов:
2.0
Разрядность/ЧД:
24/96
Формат записи/Источник записи:
[TR24][OF]
Время звучания:
00:55:52
Наличие сканов:
буклет pdf
Наличие водяных знаков:
нет
Страна-производитель диска (релиза):
USA
Релизёр (источник):
M0p94ok
Треклист:

01. The Sound of Silence  06:33 *
02. Cherish  05:28
03. Alfie  07:46
04. Pipeline  03:28 **
05. Garota de Ipanema  05:12
06. Rainy Days and Mondays  07:12
07. That's the Way I've Always Heard It Should Be  06:03
08. Slow Hot Wind  04:28
09. Betcha by Golly, Wow  05:18
10. And I Love Her  04:22 ***

Лог проверки качества
foobar2000 1.4.3 / Dynamic Range Meter 1.1.1
log date: 2020-03-26 13:28:03

--------------------------------------------------------------------------------
Analyzed: Pat Metheny / What's It All About
--------------------------------------------------------------------------------

DR         Peak         RMS     Duration Track
--------------------------------------------------------------------------------
DR9       -0.20 dB   -13.80 dB      6:33 01-The Sound of Silence
DR9       -0.20 dB   -11.95 dB      5:28 02-Cherish
DR10      -0.20 dB   -14.30 dB      7:47 03-Alfie
DR10      -0.20 dB   -12.63 dB      3:28 04-Pipeline
DR12      -0.20 dB   -16.61 dB      5:12 05-Garota de Ipanema
DR11      -0.20 dB   -13.71 dB      7:12 06-Rainy Days and Mondays
DR9       -0.20 dB   -12.60 dB      6:03 07-That's the Way I've Always Heard It Should Be
DR11      -0.20 dB   -14.76 dB      4:28 08-Slow Hot Wind
DR8       -0.20 dB   -10.91 dB      5:19 09-Betcha by Golly, Wow
DR12      -0.20 dB   -14.44 dB      4:22 10-And I Love Her
--------------------------------------------------------------------------------

Number of tracks:  10
Official DR value: DR10

Samplerate:        96000 Hz
Channels:          2
Bits per sample:   24
Bitrate:           2390 kbps
Codec:             FLAC
================================================================================
Приватный:
Нет (DHT включён)
Размер:
1008.52 Мб (1,057,511,114 байт) » файлов: 13
Участники:
5 раздают, 1 качают (6 участников всего)
Внешние участники:
--- [ Обновить ]
Есть вопросы - пишите личное сообщение пользователю M0p94ok.
13:58
44
Нет комментариев. Ваш будет первым!