Поиск

2020 Lorenzo Vitolo - Changing Shapes {Challenge} [24-48]

2020 Lorenzo Vitolo - Changing Shapes {Challenge} [24-48]
Стили:
Дата издания диска:
31 января 2020

Треклист:

01 - Unusual Muse (07:50)
02 - Beyond Desire (06:35)
03 - Blue in Green (05:01)
04 - Vicinity (09:00)
05 - Unspoken Words (06:07)
06 - Apart (06:12)
07 - Next Stop (07:06)

Доп. инфо:

• Формат записи | Источник записи: [TR24][OF]
• Наличие водяных знаков: Нет
• Год издания релиза: 2020
• Лейбл: Challenge Records
• Продолжительность: 00:47:55
• Источник: internet
• WEB релиз: ссылка
• Контейнер: FLAC (*.flac)
• Тип рипа: tracks
• Разрядность: 24/48
• Формат: PCM
• Количество каналов: 2.0
• Наличие сканов: front

Лог проверки качества
foobar2000 1.3.9 / Замер динамического диапазона (DR) 1.1.1
Дата отчёта:  2020-01-31 08:33:05

--------------------------------------------------------------------------------
Анализ:   Lorenzo Vitolo / Changing Shapes
--------------------------------------------------------------------------------

DR         Пики         RMS           Продолжительность трека
--------------------------------------------------------------------------------
DR9       -0.10 дБ   -13.32 дБ      7:50 01-Unusual Muse
DR10      -0.10 дБ   -12.90 дБ      6:35 02-Beyond Desire
DR8       -0.10 дБ   -11.48 дБ      5:02 03-Blue in Green
DR8       -0.10 дБ   -11.16 дБ      9:01 04-Vicinity
DR8       -0.10 дБ   -10.54 дБ      6:08 05-Unspoken Words
DR11      -1.11 дБ   -14.40 дБ      6:13 06-Apart
DR9       -0.10 дБ   -11.19 дБ      7:07 07-Next Stop
--------------------------------------------------------------------------------

Количество треков: 7
Реальные значения DR: DR9

Частота:   48000 Гц
Каналов:   2
Разрядность:   24
Битрейт:   1728 кбит/с
Кодек:   FLAC
================================================================================
Приватный:
Нет (DHT включён)
Размер:
567.44 Мб (595,008,762 байт) » файлов: 8
Участники:
1 раздают, 2 качают (3 участников всего)
Внешние участники:
5 раздают, 1 качают (6 участников всего) [ Обновить ]
Есть вопросы - пишите личное сообщение пользователю M0p94ok.
12:18
30
Нет комментариев. Ваш будет первым!