Поиск

2017 Pangea Ultima - Espacios Abiertos {Neuklang} [24-88,2]

2017 Pangea Ultima - Espacios Abiertos {Neuklang} [24-88,2]
Место записи:
Blue in Green Studio Bonn, Germany
Издатель (лейбл):
Номер по каталогу:
NCD4170
Носитель:
WEB
Формат:
PCM
Тип рипа:
tracks
Контейнер:
FLAC (*.flac)
Количество каналов:
2.0
Разрядность/ЧД:
24/88,2
Формат записи/Источник записи:
[TR24][OF]
Время звучания:
00:58:22
Наличие сканов:
только обложка
Наличие водяных знаков:
нет
Страна-производитель диска (релиза):
Germany
Релизёр (источник):
M0p94ok
Треклист:

1. Mafé  08:31
2. Festejo  06:55
3. Solar  06:31
4. Brazileando  06:39
5. Alfonsina y el Mar  06:19
6. Tectonic Shift  08:12
7. Spain  08:35
8. Ritmo Peligroso  05:15
9. Espaciosotreiba (Bonus Track)  01:21

Лог проверки качества
foobar2000 1.3.16 / Dynamic Range Meter 1.1.1
log date: 2018-12-16 17:14:37

--------------------------------------------------------------------------------
Analyzed: Pangea Ultima / Espacios Abiertos
--------------------------------------------------------------------------------

DR         Peak         RMS     Duration Track
--------------------------------------------------------------------------------
DR12      -1.03 dB   -15.10 dB      8:31 01-Mafé
DR12      -1.03 dB   -14.36 dB      6:56 02-Festejo
DR10      -1.03 dB   -13.68 dB      6:31 03-Solar
DR12      -1.03 dB   -14.53 dB      6:40 04-Brazileando
DR12      -1.03 dB   -14.75 dB      6:19 05-Alfonsina Y El Mar
DR10      -1.03 dB   -13.22 dB      8:12 06-Tectonic Shift
DR10      -1.03 dB   -12.89 dB      8:36 07-Spain
DR10      -1.03 dB   -13.06 dB      5:15 08-Ritmo Peligroso
DR10      -0.99 dB   -14.57 dB      1:21 09-Espaciosotreiba (Bonus Track)
--------------------------------------------------------------------------------

Number of tracks:  9
Official DR value: DR11

Samplerate:        88200 Hz
Channels:          2
Bits per sample:   24
Bitrate:           2760 kbps
Codec:             FLAC
================================================================================
Приватный:
Нет (DHT включён)
Размер:
1.19 Гб (1,282,634,495 байт) » файлов: 11
Участники:
2 раздают, 1 качают (3 участников всего)
Внешние участники:
--- [ Обновить ]
Есть вопросы - пишите личное сообщение пользователю M0p94ok.
11:57
18
Нет комментариев. Ваш будет первым!