Поиск

2017 Vince Mendoza - Homecoming {Jazzline} [24-44,1]

2017 Vince Mendoza - Homecoming {Jazzline} [24-44,1]
Дата записи диска:
21-22 ноября 2014
Место записи:
Philharmonie, Köln, Germany; Philharmonie, Essen, Germany
Дата издания диска:
29 сентября 2017
Треклист:

1. Keep It Up 08:36    
2. Little Voice 06:46    
3. Choros #3 07:50    
4. Homecoming 07:29    
5. Amazonas 09:22    
6. One Time One 08:30    
7. Daybreak 07:30

Лог проверки качества
foobar2000 1.3.9 / Замер динамического диапазона (DR) 1.1.1
Дата отчёта:  2020-01-31 08:20:16

--------------------------------------------------------------------------------
Анализ:   Vince Mendoza / Homecoming
--------------------------------------------------------------------------------

DR         Пики         RMS           Продолжительность трека
--------------------------------------------------------------------------------
DR10      -0.50 дБ   -14.28 дБ      8:36 01-Keep It Up
DR12      -0.50 дБ   -17.26 дБ      6:44 02-Little Voice
DR11      -0.50 дБ   -15.12 дБ      7:49 03-Choros #3
DR10      -0.50 дБ   -14.89 дБ      7:28 04-Homecoming
DR10      -0.50 дБ   -14.61 дБ      9:21 05-Amazonas
DR10      -0.50 дБ   -15.08 дБ      8:28 06-One Time One
DR10      -0.50 дБ   -13.72 дБ      7:31 07-Daybreak
--------------------------------------------------------------------------------

Количество треков: 7
Реальные значения DR: DR11

Частота:   44100 Гц
Каналов:   2
Разрядность:   24
Битрейт:   1573 кбит/с
Кодек:   FLAC
================================================================================
Приватный:
Нет (DHT включён)
Размер:
613.24 Мб (643,026,534 байт) » файлов: 8
Участники:
4 раздают, 1 качают (5 участников всего)
Внешние участники:
3 раздают, 1 качают (4 участников всего) [ Обновить ]
Есть вопросы - пишите личное сообщение пользователю M0p94ok.
19:52
25
Нет комментариев. Ваш будет первым!