Поиск

2017 Matthew Stevens – Preverbal {Ropeadope} [24-44,1]

2017 Matthew Stevens – Preverbal {Ropeadope} [24-44,1]
Издатель (лейбл):
Треклист:

01. Picture Window (6:15)
02. Sparkle and Fade (6:37)
03. Undertow (5:13)
04. Cocoon (7:56)
05. Reservoir (7:17)
06. Knowhow (4:47)
07. Dogeared (7:23)
08. Our Reunion (6:37)

Доп. инфо:

Формат записи/Источник записи: [TR24][OF]
Наличие водяных знаков: Нет
Год издания: 2017
Продолжительность: 00:52:04
Наличие сканов в содержимом раздачи: Только обложка
Источник: qobuz
Контейнер: FLAC (*.flac)
Тип рипа: tracks
Разрядность: 24/44,1
Формат: PCM
Количество каналов: 2.0

Лог проверки качества
foobar2000 1.3.7 / Dynamic Range Meter 1.1.1
log date: 2020-01-30 01:01:05

––––––––––––––––––––––––––––––––––––––––
Analyzed: Matthew Stevens / Preverbal
––––––––––––––––––––––––––––––––––––––––

DR Peak RMS Duration Track
––––––––––––––––––––––––––––––––––––––––
DR5 -0.60 dB -8.06 dB 6:15 01-Picture Window
DR6 -0.60 dB -8.45 dB 6:37 02-Sparkle and Fade
DR7 -0.60 dB -10.03 dB 5:13 03-Undertow
DR7 -0.60 dB -10.75 dB 7:56 04-Cocoon
DR7 -0.60 dB -10.29 dB 7:17 05-Reservoir
DR7 -0.60 dB -9.11 dB 4:47 06-Knowhow
DR6 -0.60 dB -8.63 dB 7:23 07-Dogeared
DR5 -0.60 dB -8.30 dB 6:37 08-Our Reunion
––––––––––––––––––––––––––––––––––––––––

Number of tracks: 8
Official DR value: DR6

Samplerate: 44100 Hz
Channels: 2
Bits per sample: 24
Bitrate: 1657 kbps
Codec: FLAC
================================================================================
Приватный:
Да (DHT отключён)
Размер:
627.50 Мб (657,984,064 байт) » файлов: 9
Участники:
3 раздают, 0 качают (3 участников всего)
Внешние участники:
5 раздают, 1 качают (6 участников всего) [ Обновить ]
Есть вопросы - пишите личное сообщение пользователю M0p94ok.
19:23
21
Нет комментариев. Ваш будет первым!