Поиск

2018 Masanori Oishi - Smoke {Odradek} [24-96]

2018 Masanori Oishi - Smoke {Odradek} [24-96]
Стили:
Носитель:
WEB
Формат:
PCM
Тип рипа:
tracks
Контейнер:
FLAC (*.flac)
Количество каналов:
2.0
Разрядность/ЧД:
24/96
Формат записи/Источник записи:
[TR24][OF]
Время звучания:
01:20:46
Наличие сканов:
только обложка
Наличие водяных знаков:
нет
Страна-производитель диска (релиза):
Japan
Релизёр (источник):
M0p94ok
Треклист:

1. Spell Song  05:48
2. Initial S  07:56
3. Water Shadows  12:51
4. SAKANA  08:23
5. Embers  08:51
6. Not I, but the Wind… (Pas moi, mais le vent…)  10:14
7. Smoking Prohibited, A Bay Street Ballade  24:21
8. Solitaire  02:22

Лог проверки качества
foobar2000 1.3.16 / Dynamic Range Meter 1.1.1
log date: 2018-12-16 17:13:12

--------------------------------------------------------------------------------
Analyzed: Masanori Oishi / Smoke
--------------------------------------------------------------------------------

DR         Peak         RMS     Duration Track
--------------------------------------------------------------------------------
DR13      -1.36 dB   -20.50 dB      5:48 01-Spell Song
DR13      -0.25 dB   -17.32 dB      7:57 02-Initial S
DR9       -0.25 dB   -14.63 dB     12:52 03-Water Shadows
DR13      -0.25 dB   -17.66 dB      8:23 04-SAKANA
DR13      -5.41 dB   -24.68 dB      8:52 05-Embers
DR13      -0.23 dB   -20.02 dB     10:14 06-Not I, but the Wind… (Pas moi, mais le vent…)
DR13      -0.26 dB   -17.98 dB     24:21 07-Smoking Prohibited, A Bay Street Ballade
DR9       -2.66 dB   -18.97 dB      2:22 08-Solitaire
--------------------------------------------------------------------------------

Number of tracks:  8
Official DR value: DR12

Samplerate:        96000 Hz
Channels:          2
Bits per sample:   24
Bitrate:           2165 kbps
Codec:             FLAC
================================================================================
Приватный:
Нет (DHT включён)
Размер:
1.23 Гб (1,321,555,021 байт) » файлов: 10
Участники:
2 раздают, 0 качают (2 участников всего)
Внешние участники:
--- [ Обновить ]
Есть вопросы - пишите личное сообщение пользователю M0p94ok.
18:11
17
Нет комментариев. Ваш будет первым!