Поиск

2020 Theo Hill - Reality Check {Posi-Tone} [24-88,2]

2020 Theo Hill - Reality Check {Posi-Tone} [24-88,2]
Номер по каталогу:
PR8203
Треклист:

01 - Blue Poles (05:49)
02 - Swell (04:05)
03 - Guardians Of Light (05:32)
04 - Afrofuturism (07:30)
05 - Scene Changes (03:34)
06 - Mantra (06:36)
07 - Superwoman (04:07)
08 - Aquanaut (05:59)
09 - Pressing The Issue (06:25)
10 - Song Of The Wind (05:05)

Доп. инфо:

• Формат записи | Источник записи: [TR24][OF]
• Наличие водяных знаков: Нет
• Год издания релиза: 2020
• Лейбл: Posi-Tone Records
• Продолжительность: 00:54:47
• Источник: internet
• WEB релиз: ссылка
• Контейнер: FLAC (*.flac)
• Тип рипа: tracks
• Разрядность: 24/88,2
• Формат: WAV (flac.ape.wv)
• Количество каналов: 2.0
• Наличие сканов: front

Лог проверки качества
foobar2000 1.4.2 / Dynamic Range Meter 1.1.1
log date: 2020-01-30 21:35:06

--------------------------------------------------------------------------------
Analyzed: Theo Hill / Reality Check
--------------------------------------------------------------------------------

DR         Peak         RMS     Duration Track
--------------------------------------------------------------------------------
DR9       -0.98 dB   -12.37 dB      5:50 01-Blue Poles
DR10      -0.98 dB   -12.62 dB      4:05 02-Swell
DR9       -0.98 dB   -11.92 dB      5:32 03-Guardians Of Light
DR11      -0.98 dB   -13.70 dB      7:30 04-Afrofuturism
DR14      -0.98 dB   -18.09 dB      3:34 05-Scene Changes
DR9       -0.98 dB   -12.00 dB      6:37 06-Mantra
DR10      -0.98 dB   -13.18 dB      4:08 07-Superwoman
DR9       -0.98 dB   -11.84 dB      5:59 08-Aquanaut
DR9       -0.98 dB   -11.52 dB      6:26 09-Pressing The Issue
DR10      -0.98 dB   -13.26 dB      5:06 10-Song Of The Wind
--------------------------------------------------------------------------------

Number of tracks:  10
Official DR value: DR10

Samplerate:        88200 Hz
Channels:          2
Bits per sample:   24
Bitrate:           2765 kbps
Codec:             FLAC
================================================================================
Приватный:
Нет (DHT включён)
Размер:
1.05 Гб (1,128,956,851 байт) » файлов: 11
Участники:
11 раздают, 0 качают (11 участников всего)
Внешние участники:
7 раздают, 2 качают (9 участников всего) [ Обновить ]
Есть вопросы - пишите личное сообщение пользователю M0p94ok.
14:29
19
Нет комментариев. Ваш будет первым!