Поиск

1958 Muggsy Spanier - Chicago Jazz (2019) {RKO} [24-96]

1958 Muggsy Spanier - Chicago Jazz (2019) {RKO} [24-96]
Стили:
Треклист:

01. The Darktown Strutter's Ball (2:04)
02. St. James Infirmary Blues (2:45)
03. When The Saints Go Marching In (2:32)
04. Jazz Me Blues (2:18)
05. Tin Roof Blues (2:58)
06. Muskrat Ramble (2:42)
07. Panama (2:35)
08. At The Jazz Band Ball (2:49)
09. Sugar (4:26)
10. Ja-Da (3:32)
11. Some Day Sweetheart (3:12)
12. South (2:48)

Доп. инфо:

Формат записи/Источник записи: [TR24][OF]
Наличие водяных знаков: Нет
Год издания/переиздания диска: 1958/2019
Издатель (лейбл): RKO Records
Продолжительность: 34:40
Наличие сканов в содержимом раздачи: Только обложка альбома

Контейнер: FLAC (*.flac)
Тип рипа: tracks
Разрядность: 24/96
Формат: PCM
Количество каналов: 2.0
Notes: tracks 4, 7 - 24/44,1; stereo
           tracks 1-3, 5, 6, 8-12 - 24/96; mono

Источник: qobuz.com

Лог проверки качества
foobar2000 1.3.9 / Dynamic Range Meter 1.1.1
log date: 2020-01-30 17:27:56

--------------------------------------------------------------------------------
Analyzed: Muggsy Spanier / Chicago Jazz
--------------------------------------------------------------------------------

DR         Peak         RMS     Duration Track
--------------------------------------------------------------------------------
DR12      -1.21 dB   -15.42 dB      2:18 04-Jazz Me Blues
DR11      -1.21 dB   -13.67 dB      2:35 07-Panama
--------------------------------------------------------------------------------

Number of tracks:  2
Official DR value: DR11

Samplerate:        44100 Hz
Channels:          2
Bits per sample:   24
Bitrate:           1535 kbps
Codec:             FLAC
================================================================================

--------------------------------------------------------------------------------
Analyzed: Muggsy Spanier / Chicago Jazz
--------------------------------------------------------------------------------

DR         Peak         RMS     Duration Track
--------------------------------------------------------------------------------
DR11      -1.22 dB   -14.31 dB      2:04 01-The Darktown Strutter's Ball
DR12      -1.22 dB   -16.02 dB      2:45 02-St. James Infirmary Blues
DR12      -1.22 dB   -15.25 dB      2:32 03-When The Saints Go Marching In
DR13      -1.22 dB   -17.51 dB      2:58 05-Tin Roof Blues
DR12      -1.22 dB   -14.57 dB      2:42 06-Muskrat Ramble
DR10      -1.22 dB   -13.17 dB      2:49 08-At The Jazz Band Ball
DR11      -1.22 dB   -13.86 dB      4:26 09-Sugar
DR12      -1.22 dB   -14.76 dB      3:32 10-Ja-Da
DR10      -1.22 dB   -13.75 dB      3:12 11-Some Day Sweetheart
DR10      -1.22 dB   -13.14 dB      2:48 12-South
--------------------------------------------------------------------------------

Number of tracks:  10
Official DR value: DR11

Samplerate:        96000 Hz
Channels:          2
Bits per sample:   24
Bitrate:           1320 kbps
Codec:             FLAC
================================================================================
Приватный:
Нет (DHT включён)
Размер:
343.88 Мб (360,589,340 байт) » файлов: 15
Участники:
0 раздают, 0 качают (0 участников всего)
Внешние участники:
1 раздают, 0 качают (1 участников всего) [ Обновить ]
Есть вопросы - пишите личное сообщение пользователю M0p94ok.
12:42
22
Нет комментариев. Ваш будет первым!