Поиск

2016 Malia - Malawi Blues/Njira {MPS Classical} [24-96]

2016 Malia - Malawi Blues/Njira {MPS Classical} [24-96]
Треклист:

01    Malawi Blues / Njira    5:43
02    Love Is Holding Both Our Hands    4:22
03    Chipadzuwa    4:39
04    Let Me Breathe    4:41
05    Disgrace    3:46
06    The Seed    4:24
07    Black Widow    5:00
08    Moon River    5:18
09    Friendship    4:04
10    Wonder Of The World    5:40

Доп. инфо:

Формат записи/Источник записи: [TR24][OF]
Наличие водяных знаков: Нет
Издание: Bonus
Год издания/переиздания диска: 2016
Издатель (лейбл): MPS Classical
Продолжительность: 00:52:06
Наличие сканов в содержимом раздачи: Буклет PDF
Источник (релизер): highresaudio

Контейнер: FLAC (*.flac)
Тип рипа: tracks
Разрядность: 24/96
Формат: PCM
Количество каналов: 2.0
Доп. информация: https://www.malia-music.com/

Лог проверки качества
foobar2000 1.3.16 / Dynamic Range Meter 1.1.1
log date: 2019-04-16 03:10:15

--------------------------------------------------------------------------------
Analyzed: Malia / Malawi Blues/Njira
--------------------------------------------------------------------------------

DR         Peak         RMS     Duration Track
--------------------------------------------------------------------------------
DR9       -0.12 dB   -11.58 dB      5:41 01-Malawi Blues/Njira
DR8       -0.12 dB    -9.94 dB      4:21 02-Love Is Holding Both Our Hands
DR9       -0.12 dB   -13.14 dB      4:37 03-Chipadzuwa
DR8       -0.12 dB   -11.49 dB      4:40 04-Let Me Breathe
DR8       -0.12 dB   -10.01 dB      3:45 05-Disgrace
DR9       -0.12 dB   -11.53 dB      4:23 06-The Seed
DR8       -0.12 dB   -10.14 dB      4:59 07-Black Widow
DR11      -0.06 dB   -12.79 dB      5:16 08-Moon River
DR9       -0.38 dB   -10.84 dB      4:02 09-Friendship
DR9       -0.12 dB   -10.58 dB      5:45 10-Wonder of the World
DR8       -0.12 dB   -10.73 dB      4:38 11-Let Me Breathe (Bonustrack)
--------------------------------------------------------------------------------

Number of tracks:  11
Official DR value: DR9

Samplerate:        96000 Hz
Channels:          2
Bits per sample:   24
Bitrate:           3054 kbps
Codec:             FLAC
================================================================================
Приватный:
Нет (DHT включён)
Размер:
1.08 Гб (1,158,553,893 байт) » файлов: 15
Участники:
1 раздают, 3 качают (4 участников всего)
Внешние участники:
14 раздают, 4 качают (18 участников всего) [ Обновить ]
Есть вопросы - пишите личное сообщение пользователю M0p94ok.
20:58
51
Нет комментариев. Ваш будет первым!