Поиск

1956 Muggsy Spanier's Ragtime Band - The Great 16 (2018) {Legacy} [24-96]

1956 Muggsy Spanier's Ragtime Band - The Great 16 (2018) {Legacy} [24-96]
Стили:
Издатель (лейбл):

Треклист:

01. Relaxin' At The Touro (3:13)
02. Mandy, Make Up Your Mind (2:36)
03. Bluin' The Blues (2:39)
04. That Da Da Strain (2:30)
05. I Wish That I Could Shimmy Like My Sister Kate (2:55)
06. At Sundown (2:33)
07. Lonesome Road (3:00)
08. Eccentric (2:38)
09. At The Jazz Band Ball (2:50)
10. Dinah (2:43)
11. Big Butter And Egg Man (3:01)
12. Livery Stable Blues (3:01)
13. Black And Blue (2:41)
14. Riverboat Shuffle (2:44)
15. Someday Sweetheart (2:44)
16. Dipper Mouth Blues (2:25)

Доп. инфо:

Формат записи/Источник записи: [TR24][OF]
Наличие водяных знаков: Нет
Год издания/переиздания диска: 1956/2018
Продолжительность: 44:13
Наличие сканов в содержимом раздачи: Только обложка альбома

Контейнер: FLAC (*.flac)
Тип рипа: tracks
Разрядность: 24/96
Формат: PCM
Количество каналов: 2.0
Notes: Mono

Источник: qobuz.com

Лог проверки качества
foobar2000 1.3.9 / Dynamic Range Meter 1.1.1
log date: 2020-01-30 16:28:36

--------------------------------------------------------------------------------
Analyzed: Muggsy Spanier's Ragtime Band / The Great 16
--------------------------------------------------------------------------------

DR         Peak         RMS     Duration Track
--------------------------------------------------------------------------------
DR12      -0.02 dB   -14.12 dB      3:13 01-Relaxin' At The Touro
DR11      -0.02 dB   -12.96 dB      2:36 02-Mandy, Make Up Your Mind
DR11      -0.02 dB   -12.86 dB      2:39 03-Bluin' The Blues
DR11      -0.02 dB   -12.78 dB      2:30 04-That Da Da Strain
DR11      -0.02 dB   -13.82 dB      2:55 05-I Wish That I Could Shimmy Like My Sister Kate
DR11      -0.02 dB   -13.10 dB      2:33 06-At Sundown
DR13      -0.02 dB   -15.77 dB      3:00 07-Lonesome Road
DR11      -0.02 dB   -12.87 dB      2:38 08-Eccentric
DR12      -0.02 dB   -13.68 dB      2:50 09-At The Jazz Band Ball
DR12      -0.02 dB   -14.38 dB      2:43 10-Dinah
DR11      -0.02 dB   -13.42 dB      3:01 11-Big Butter And Egg Man
DR12      -0.02 dB   -13.18 dB      3:01 12-Livery Stable Blues
DR13      -0.02 dB   -15.69 dB      2:41 13-Black And Blue
DR12      -0.02 dB   -13.14 dB      2:44 14-Riverboat Shuffle
DR11      -0.02 dB   -12.94 dB      2:44 15-Someday Sweetheart
DR12      -0.02 dB   -13.45 dB      2:25 16-Dipper Mouth Blues
--------------------------------------------------------------------------------

Number of tracks:  16
Official DR value: DR12

Samplerate:        96000 Hz
Channels:          2
Bits per sample:   24
Bitrate:           1617 kbps
Codec:             FLAC
================================================================================
Приватный:
Нет (DHT включён)
Размер:
498.71 Мб (522,931,787 байт) » файлов: 19
Участники:
2 раздают, 4 качают (6 участников всего)
Внешние участники:
3 раздают, 1 качают (4 участников всего) [ Обновить ]
Скорость:
0/c 17.25 Кб/c
Есть вопросы - пишите личное сообщение пользователю M0p94ok.
20:14
13
Нет комментариев. Ваш будет первым!