Вы используете незарегистрированную версию компонента "Вкладки"!

Поиск

2019 Welten - Akureyri {JazzLab} [24-44,1]

2019 Welten - Akureyri {JazzLab} [24-44,1]
Стили:
Дата издания диска:
30 ноября 2019
Доп. инфо:

• Формат записи | Источник записи: [TR24][OF]
• Наличие водяных знаков: Нет
• Страна: Germany
• Год издания релиза: 2020
• Продолжительность: 00:52:26
• WEB релиз: ссылка
• Контейнер: FLAC (*.flac)
• Тип рипа: tracks
• Разрядность: 24/44,1
• Формат: PCM
• Количество каналов: 2.0
• Наличие сканов: front

Лог проверки качества
foobar2000 1.3.9 / Замер динамического диапазона (DR) 1.1.1
Дата отчёта:  2020-01-31 08:33:31

--------------------------------------------------------------------------------
Анализ:   Welten / Akureyri
--------------------------------------------------------------------------------

DR         Пики         RMS           Продолжительность трека
--------------------------------------------------------------------------------
DR11      -5.68 дБ   -20.35 дБ      1:54 01-Moschops
DR10      -0.50 дБ   -15.26 дБ      6:10 02-Skato
DR11      -8.19 дБ   -24.95 дБ      2:53 03-Okjökull
DR8       -0.50 дБ   -12.11 дБ      5:56 04-Lamalo
DR12      -0.50 дБ   -16.39 дБ      7:48 05-Akureyri
DR9       -3.85 дБ   -18.04 дБ      2:37 06-Christina
DR8       -0.50 дБ   -11.42 дБ      3:53 07-Hold On
DR8       -5.03 дБ   -17.57 дБ      1:20 08-(
DR11      -0.50 дБ   -16.54 дБ      6:28 09-)
DR11      -0.50 дБ   -14.68 дБ      5:34 10-Capurganá
DR10      -0.50 дБ   -14.97 дБ      5:42 11-Snail Mary
DR10      -4.36 дБ   -18.71 дБ      2:12 12-Flutuando III 1/2
--------------------------------------------------------------------------------

Количество треков: 12
Реальные значения DR: DR10

Частота:   44100 Гц
Каналов:   2
Разрядность:   24
Битрейт:   1332 кбит/с
Кодек:   FLAC
================================================================================
Any questions - support@pro-jazz.com. Есть вопросы - support@pro-jazz.com
15:19
289
Нет комментариев. Ваш будет первым!