Поиск

1960 Lorez Alexandria With The Ramsey Lewis Trio - Early In The Morning (2019) {RevOla} [24-96]

1960 Lorez Alexandria With The Ramsey Lewis Trio - Early In The Morning (2019) {RevOla} [24-96]
Издатель (лейбл):
Доп. инфо:

Формат записи/Источник записи: [TR24][OF]
Издание: Remastered
Год издания/переиздания диска: 1960/2019
Издатель (лейбл): RevOla
Продолжительность: 00:28:58
Наличие сканов в содержимом раздачи: Нет

Контейнер: FLAC (*.flac)
Тип рипа: tracks
Разрядность: 24/96
Количество каналов: 2.0

Источник (релизер): Qobuz

Лог проверки качества
foobar2000 1.4.3 / Dynamic Range Meter 1.1.1
log date: 2020-01-27 19:39:11

--------------------------------------------------------------------------------
Analyzed: Lorez Alexandria / Early In The Morning
--------------------------------------------------------------------------------

DR         Peak         RMS     Duration Track
--------------------------------------------------------------------------------
DR10      -0.60 dB   -12.63 dB      2:59 01-Early in the Morning (Remastered)
DR10      -0.64 dB   -13.65 dB      3:14 02-Don't Explain (Remastered)
DR8       -0.22 dB   -11.86 dB      3:28 03-So Long (Remastered)
DR9       -0.65 dB   -13.12 dB      3:19 04-Good Morning Heartache (Remastered)
DR13      -1.66 dB   -19.60 dB      2:40 05-Trouble Is a Man (Remastered)
DR7       -0.30 dB   -10.63 dB      2:23 06-I Ain't Got Nothing But The Blues (Remastered)
DR7       -0.57 dB   -11.01 dB      2:16 07-Baby Don't You Cry (Remastered)
DR9       -0.54 dB   -11.62 dB      2:43 08-Rocks in My Bed (Remastered)
DR12      -1.84 dB   -16.99 dB      2:56 09-I'm Just A Lucky So & So (Remastered)
DR8       -0.58 dB   -10.97 dB      3:04 10-Almost Lost My Mind (Remastered)
--------------------------------------------------------------------------------

Number of tracks:  10
Official DR value: DR9

Samplerate:        96000 Hz
Channels:          2
Bits per sample:   24
Bitrate:           2449 kbps
Codec:             FLAC
================================================================================
No seeders - write personal message to M0p94ok. Any questions - support@pro-jazz.com.
Нет сидеров - пишите в личку M0p94ok. Есть вопросы - support@pro-jazz.com
19:00
278
Нет комментариев. Ваш будет первым!