Поиск

2009 Cab Calloway - I Beeped When I Shoulda Bopped! (2019) {RevOla} [24-44.1]

2009 Cab Calloway - I Beeped When I Shoulda Bopped! (2019) {RevOla} [24-44.1]
Стили:
Дата переиздания диска:
19 марта 2019
Издатель (лейбл):
Носитель:
WEB
Формат:
PCM
Тип рипа:
tracks
Контейнер:
FLAC (*.flac)
Количество каналов:
2.0
Разрядность/ЧД:
24/44,1
Битрейт аудио:
lossless
Время звучания:
01:00:13
Наличие сканов:
только обложка

Треклист:

01. Baby It's Cold Outside (Remastered)  02:20
02. The Huckle-Buck (Remastered)  02:30
03. Ol' Joe Louis (Remastered)  02:34
04. Your Voice (Remastered)  02:39
05. Rooming House Boogie (Remastered)  03:23
06. I Beeped When I Shoulda Bopped (Remastered)  02:38
07. The Duck Trot (Remastered)  03:13
08. Pero Que Jelengue (Remastered)  02:47
09. The Keeper Of The Blues (Remastered)  02:47
10. La Mucura (Remastered)  02:54
11. Que Pasa Chica (Remastered)  02:34
12. Shot Gun Boogie (Remastered)  03:03
13. Frosty Morning (Remastered)  02:38
14. One For My Baby (Remastered)  03:31
15. I'll Get By (Remastered)  02:50
16. Minnie The Moocher (Remastered)  03:08
17. Gambler's Guitar (Gamblers' Blues) (Remastered)  02:34
18. Hey Joe (Remastered)  02:28
19. Jilted (Remastered)  02:09
20. Such A Night (Remastered)  02:10
21. Unchained Melody (Remastered)  02:48
22. Learning The Blues (Remastered)  02:35

Лог проверки качества
foobar2000 1.6.10 / Dynamic Range Meter 1.1.1
log date: 2022-08-21 10:47:27

--------------------------------------------------------------------------------
Analyzed: Cab Calloway / I Beeped When I Shoulda Bopped!
--------------------------------------------------------------------------------

DR         Peak         RMS     Duration Track
--------------------------------------------------------------------------------
DR12      -4.27 dB   -19.80 dB      2:21 01-Baby It's Cold Outside
DR13      -3.65 dB   -19.00 dB      2:30 02-The Huckle-Buck
DR12      -2.70 dB   -16.94 dB      2:35 03-Ol' Joe Louis
DR11      -4.47 dB   -16.82 dB      2:39 04-Your Voice
DR11      -3.78 dB   -16.35 dB      3:24 05-Rooming House Boogie
DR11      -4.23 dB   -17.26 dB      2:38 06-I Beeped When I Shoulda Bopped
DR13      -3.07 dB   -19.23 dB      3:14 07-The Duck Trot
DR15      -2.41 dB   -19.16 dB      2:47 08-Pero Que Jelengue
DR14      -2.18 dB   -18.66 dB      2:48 09-The Keeper Of The Blues
DR16      -2.92 dB   -20.61 dB      2:55 10-La Mucura
DR13      -4.34 dB   -18.57 dB      2:34 11-Que Pasa Chica
DR12      -3.13 dB   -17.00 dB      3:04 12-Shot Gun Boogie
DR12      -4.40 dB   -19.48 dB      2:39 13-Frosty Morning
DR12      -2.87 dB   -18.11 dB      3:32 14-One For My Baby
DR10      -4.06 dB   -16.79 dB      2:50 15-I'll Get By
DR11      -2.76 dB   -15.53 dB      3:08 16-Minnie The Moocher
DR12      -2.41 dB   -17.35 dB      2:34 17-Gambler's Guitar (Gamblers' Blues)
DR12      -3.07 dB   -17.12 dB      2:28 18-Hey Joe
DR12      -3.43 dB   -17.95 dB      2:10 19-Jilted
DR13      -3.03 dB   -18.55 dB      2:10 20-Such A Night
DR11      -3.48 dB   -19.06 dB      2:49 21-Unchained Melody
DR11      -3.68 dB   -17.47 dB      2:36 22-Learning The Blues
--------------------------------------------------------------------------------

Number of tracks:  22
Official DR value: DR12

Samplerate:        44100 Hz
Channels:          2
Bits per sample:   24
Bitrate:           651 kbps
Codec:             FLAC
================================================================================
По всем вопросам пишите личное сообщение пользователю M0p94ok.
10:10
92
Нет комментариев. Ваш будет первым!