Поиск

2020 Dagadana - Ferment {Nra Service} [24-48]

2020 Dagadana - Ferment {Nra Service} [24-48]
Стили:
Дата издания диска:
25 октября 2020
Носитель:
WEB
Формат:
PCM
Тип рипа:
tracks
Контейнер:
FLAC (*.flac)
Количество каналов:
2.0
Разрядность/ЧД:
24/48
Битрейт аудио:
lossless
Наличие сканов:
только обложка

Треклист:

1. Jedrek Filus Ferment  08:04
2. Monika Kuczyniecka Ferment  05:04
3. Aleksander Baron Ferment  05:06
4. Mariusz Szczygiel Ferment ft. Mariusz Szczygiel  05:33

Состав:
  • Dagadana
  • Mikołaj Pospieszalski
  • Bartosz Mikołaj Nazaruk
  • Bogdana Vynnytska
Лог проверки качества
foobar2000 1.6.10 / Dynamic Range Meter 1.1.1
log date: 2022-08-21 13:15:52

--------------------------------------------------------------------------------
Analyzed: DagaDana / Ferment
--------------------------------------------------------------------------------

DR         Peak         RMS     Duration Track
--------------------------------------------------------------------------------
DR8       -1.00 dB   -14.23 dB      8:04 01-Jedrek Filus Ferment
DR6       -1.00 dB    -9.06 dB      5:04 02-Monika Kuczyniecka Ferment
DR9       -1.00 dB   -13.05 dB      5:07 03-Aleksander Baron Ferment
DR10      -1.00 dB   -13.97 dB      5:33 04-Mariusz Szczygiel Ferment
--------------------------------------------------------------------------------

Number of tracks:  4
Official DR value: DR8

Samplerate:        48000 Hz
Channels:          2
Bits per sample:   24
Bitrate:           1573 kbps
Codec:             FLAC
================================================================================
По всем вопросам пишите личное сообщение пользователю M0p94ok.
12:28
112
Нет комментариев. Ваш будет первым!