Поиск

2006 Nicholas Payton, Bob Belden, Sam Yahel, John Hart, Billy Drummond – Mysterious Shorter {Chesky} [DST64]

2006 Nicholas Payton, Bob Belden, Sam Yahel, John Hart, Billy Drummond – Mysterious Shorter {Chesky} [DST64]
Дата издания диска:
24 октября 2006
Издатель (лейбл):
Битрейт аудио:
lossless
Доп. инфо:

Формат записи/Источник записи: [SACD-R][OF]
Наличие водяных знаков: Нет
Год издания: 2006
Продолжительность: 01:00:40
Наличие сканов в содержимом раздачи: имеются
Контейнер: ISO (*.iso)
Тип рипа: image
Разрядность: 64(2,8 MHz/1 Bit)
Формат: DST64
Количество каналов: 2.0; 5.1

Источник (релизер): jazzyman (PS³SACD)
https://www.cede.com
sa-cd.net

Лог проверки качества
foobar2000 1.5.2 / Dynamic Range Meter 1.1.1

––––––––––––––––––––––––––––––––––––––––
Analyzed: Bob Belden / Mysterious Shorter
––––––––––––––––––––––––––––––––––––––––

DR Peak RMS Duration Track
––––––––––––––––––––––––––––––––––––––––
DR12 -6.13 dB -32.03 dB 8:43 01-Montezuma
DR12 -5.84 dB -30.00 dB 6:41 02-Tom Thumb
DR13 -5.98 dB -31.40 dB 8:42 03-Footprints
DR11 -12.39 dB -34.50 dB 7:49 04-Teru
DR12 -5.98 dB -30.66 dB 7:03 05-Witch Hunt
DR12 -6.13 dB -31.87 dB 8:21 06-Masqualero
DR12 -6.28 dB -31.34 dB 7:11 07-Beauty and the Beast
DR10 -13.23 dB -33.16 dB 6:10 08-Miyako
––––––––––––––––––––––––––––––––––––––––

Number of tracks: 8
Official DR value: DR12

Samplerate: 2822400 Hz / PCM Samplerate: 88200 Hz
Channels: 5
Bits per sample: 1
Bitrate: 14112 kbps
Codec: DST64
================================================================================

––––––––––––––––––––––––––––––––––––––––
Analyzed: Bob Belden / Mysterious Shorter
––––––––––––––––––––––––––––––––––––––––

DR Peak RMS Duration Track
––––––––––––––––––––––––––––––––––––––––
DR17 -6.13 dB -28.41 dB 8:43 01-Montezuma
DR17 -5.84 dB -26.37 dB 6:41 02-Tom Thumb
DR18 -5.98 dB -27.80 dB 8:42 03-Footprints
DR15 -12.39 dB -30.84 dB 7:49 04-Teru
DR16 -5.98 dB -27.05 dB 7:03 05-Witch Hunt
DR17 -6.13 dB -28.25 dB 8:21 06-Masqualero
DR16 -6.28 dB -27.74 dB 7:11 07-Beauty and the Beast
DR13 -13.23 dB -29.65 dB 6:10 08-Miyako
––––––––––––––––––––––––––––––––––––––––

Number of tracks: 8
Official DR value: DR16

Samplerate: 2822400 Hz / PCM Samplerate: 88200 Hz
Channels: 2
Bits per sample: 1
Bitrate: 5645 kbps
Codec: DST64
No seeders - write personal message to M0p94ok. Any questions - support@pro-jazz.com.
Нет сидеров - пишите в личку M0p94ok. Есть вопросы - support@pro-jazz.com
21:06
247
Нет комментариев. Ваш будет первым!