Поиск

2020 Erland Dahlen - Bones {Hubro} [24-44,1]

2020 Erland Dahlen - Bones {Hubro} [24-44,1]
Дата издания диска:
30 октября 2020
Битрейт аудио:
lossless

Треклист:

1. Desert  04:14
2. Wagen  08:25
3. Hunt  07:57
4. Swan  08:34
5. Bones  05:35
6. Blind  04:21

Доп. инфо:

Формат записи/Источник записи: [TR24][OF]
Наличие водяных знаков: Нет
Издатель (лейбл): Hubro
Продолжительность: 00:39:06
Наличие сканов в содержимом раздачи: Только обложка альбома

Контейнер: FLAC (*.flac)
Тип рипа: tracks
Разрядность: 24/44,1
Формат: PCM
Количество каналов: 2.0
Источник (релизер): anakunda red

https://www.qobuz.com/fr-fr/album/bones-erland-dahlen/jr88uoffvs36b

Лог проверки качества
foobar2000 1.6.2 / Dynamic Range Meter 1.1.1
log date: 2020-10-31 22:27:41

--------------------------------------------------------------------------------
Analyzed: Erland Dahlen / Bones
--------------------------------------------------------------------------------

DR         Peak         RMS     Duration Track
--------------------------------------------------------------------------------
DR10      -0.08 dB   -12.82 dB      4:15 01-Desert
DR10      -0.04 dB   -13.72 dB      8:25 02-Wagen
DR9       -0.01 dB   -12.28 dB      7:58 03-Hunt
DR12      -0.31 dB   -15.26 dB      8:35 04-Swan
DR11      -0.01 dB   -13.33 dB      5:36 05-Bones
DR10      -0.11 dB   -11.30 dB      4:22 06-Blind
--------------------------------------------------------------------------------

Number of tracks:  6
Official DR value: DR10

Samplerate:        44100 Hz
Channels:          2
Bits per sample:   24
Bitrate:           1602 kbps
Codec:             FLAC
================================================================================
Приватный:
Нет (DHT включён)
Размер:
441.74 Мб (463,198,254 байт) » файлов: 9
Участники:
0 раздают, 0 качают (0 участников всего)
Внешние участники:
3 раздают, 1 качают (4 участников всего) [ Обновить ]
No seeders - write personal message to M0p94ok. Нет сидеров - пишите в личку M0p94ok.
16:17
151
Нет комментариев. Ваш будет первым!