Вы используете незарегистрированную версию компонента "Вкладки"!

Поиск

2015 VA - Linn Records - The Super Audio Collection Vol. 8 {Linn} [DSD64]

2015 VA - Linn Records - The Super Audio Collection Vol. 8 {Linn} [DSD64]
Издатель (лейбл):
Номер по каталогу:
AKP 537
Битрейт аудио:
lossless
Доп. инфо:

ормат записи/Источник записи: [SACD-R][OF]
Наличие водяных знаков: Нет
Год издания/переиздания диска: 2015
Продолжительность: 00:56:06
Наличие сканов в содержимом раздачи: Да (сканы)

Контейнер: ISO (*.iso)
Тип рипа: image
Формат: DSD64, DST64
Разрядность: DSD64(2,8 MHz/1 Bit)
Количество каналов: 2.0, 5.1

 

Лог проверки качества
foobar2000 1.4.3 / Замер динамического диапазона (DR) 1.1.1
Дата отчёта:  2020-09-10 18:59:23

--------------------------------------------------------------------------------
Анализ:   Various / Super Audio Collection Vol. 8
--------------------------------------------------------------------------------

DR         Пики         RMS           Продолжительность трека
--------------------------------------------------------------------------------
DR11      -8.98 дБ   -25.09 дБ      4:15 01-Nothing's Changed
DR13      -7.13 дБ   -29.07 дБ      2:24 02-Sonata No. 60 in C major - III. Allegro molto
DR14      -6.95 дБ   -29.77 дБ      9:24 03-Symphony No. 2 - I. Allegretto
DR13      -9.51 дБ   -33.34 дБ      2:06 04-Mazurka, Op. 17 No. 2 in E minor
DR13      -7.79 дБ   -31.25 дБ      1:38 05-Gedichte der Konigin Marie Stuart, Op. 135 - I. Abschied von Frankreich
DR12     -12.41 дБ   -33.70 дБ      3:49 06-Serenade for strings, Op. 48 - II. Valse. Moderato. Tempo di Valse
DR11     -16.10 дБ   -34.08 дБ      1:22 07-The Well-Tempered Clavier Book I, Prelude No. 19 in A major, BWV 864
DR12      -7.07 дБ   -28.18 дБ      6:28 08-Quemadmodum desiderat cervus
DR13      -9.40 дБ   -31.22 дБ      4:06 09-Divertimento No. 14 in B flat major, K. 270 - I. Allegro molto
DR13     -12.27 дБ   -32.51 дБ      3:10 10-Fantasia 4 a4 (VDGS 24)
DR12      -7.06 дБ   -27.04 дБ      8:39 11-Symphony No. 2 in C major, Op. 61 - IV. Allegro molto vivace
DR12      -9.99 дБ   -28.87 дБ      5:13 12-Hello Young Lovers
DR13      -8.94 дБ   -29.89 дБ      3:31 13-Goodbye For Now
--------------------------------------------------------------------------------

Количество треков: 13
Реальные значения DR: DR12

Частота:   2822400 Гц / Частота PCM: 176400 Гц
Каналов:   6
Разрядность:   1
Битрейт:   16934 кбит/с
Кодек:   DST64
================================================================================

--------------------------------------------------------------------------------
Анализ:   Various / Super Audio Collection Vol. 8
--------------------------------------------------------------------------------

DR         Пики         RMS           Продолжительность трека
--------------------------------------------------------------------------------
DR9       -7.86 дБ   -18.69 дБ      4:15 01-Nothing's Changed
DR13      -6.03 дБ   -23.14 дБ      2:24 02-Sonata No. 60 in C major - III. Allegro molto
DR13      -5.99 дБ   -24.06 дБ      9:24 03-Symphony No. 2 - I. Allegretto
DR13      -8.28 дБ   -27.58 дБ      2:06 04-Mazurka, Op. 17 No. 2 in E minor
DR13      -6.15 дБ   -24.85 дБ      1:38 05-Gedichte der Konigin Marie Stuart, Op. 135 - I. Abschied von Frankreich
DR12     -10.71 дБ   -28.03 дБ      3:49 06-Serenade for strings, Op. 48 - II. Valse. Moderato. Tempo di Valse
DR11     -14.67 дБ   -28.22 дБ      1:22 07-The Well-Tempered Clavier Book I, Prelude No. 19 in A major, BWV 864
DR11      -6.02 дБ   -22.18 дБ      6:28 08-Quemadmodum desiderat cervus
DR13      -7.50 дБ   -25.08 дБ      4:06 09-Divertimento No. 14 in B flat major, K. 270 - I. Allegro molto
DR12     -10.49 дБ   -26.72 дБ      3:10 10-Fantasia 4 a4 (VDGS 24)
DR10      -6.05 дБ   -21.04 дБ      8:39 11-Symphony No. 2 in C major, Op. 61 - IV. Allegro molto vivace
DR11      -8.10 дБ   -22.59 дБ      5:13 12-Hello Young Lovers
DR13      -7.32 дБ   -23.51 дБ      3:31 13-Goodbye For Now
--------------------------------------------------------------------------------

Количество треков: 13
Реальные значения DR: DR12

Частота:   2822400 Гц / Частота PCM: 176400 Гц
Каналов:   2
Разрядность:   1
Битрейт:   5645 кбит/с
Кодек:   DST64
================================================================================
Any questions - support@pro-jazz.com. Есть вопросы - support@pro-jazz.com
17:23
305
Нет комментариев. Ваш будет первым!