Поиск

2016 Fly - Year Of The Snake {ECM} [24-88,2]

2016 Fly - Year Of The Snake {ECM} [24-88,2]
Стили:
Дата записи диска:
1 января 2011
Место записи:
Avatar Studios, New York City, NY, USA
Дата издания диска:
4 апреля 2012
Издатель (лейбл):
Номер по каталогу:
ECM 2235
Носитель:
WEB
Формат:
PCM
Тип рипа:
tracks+.cue
Контейнер:
APE (*.ape)
Количество каналов:
2.0
Разрядность/ЧД:
24/88,2
Битрейт аудио:
lossless
Время звучания:
01:00:42
Наличие сканов:
да
Страна-производитель диска (релиза):
Germany
Релизёр (источник):
M0p94ok
Лог проверки качества
foobar2000 1.6.2 / Dynamic Range Meter 1.1.1
log date: 2020-12-18 18:14:43

--------------------------------------------------------------------------------
Analyzed: Fly Trio / Year Of The Snake
--------------------------------------------------------------------------------

DR         Peak         RMS     Duration Track
--------------------------------------------------------------------------------
DR12      -4.50 dB   -20.54 dB      2:29 01-The Western Lands I
DR15      -0.28 dB   -16.81 dB      6:09 02-Festival Tune
DR11     -14.38 dB   -30.49 dB      0:40 03-The Western Lands II
DR14      -1.65 dB   -19.66 dB      7:40 04-Brothersister
DR13      -0.28 dB   -16.36 dB      6:15 05-Diorite
DR15      -0.28 dB   -18.26 dB     10:17 06-Kingston
DR13      -0.58 dB   -17.25 dB      5:08 07-Salt And Pepper
DR12      -7.05 dB   -23.16 dB      3:13 08-The Western Lands III
DR15      -0.28 dB   -17.70 dB      5:21 09-Benj
DR14      -0.28 dB   -16.80 dB      9:04 10-Year Of The Snake
DR13      -9.02 dB   -29.13 dB      2:41 11-The Western Lands IV
DR13     -14.09 dB   -33.86 dB      1:49 12-The Western Lands V
--------------------------------------------------------------------------------

Number of tracks:  12
Official DR value: DR13

Samplerate:        88200 Hz
Channels:          2
Bits per sample:   24
Bitrate:           2170 kbps
Codec:             FLAC
================================================================================
No seeders - write personal message to M0p94ok. Any questions - support@pro-jazz.com.
Нет сидеров - пишите в личку M0p94ok. Есть вопросы - support@pro-jazz.com
20:06
213
Нет комментариев. Ваш будет первым!