Поиск

1964 Anita O'Day - Incomparable! (2019) {RevOla} [24-44,1]

1964 Anita O'Day - Incomparable! (2019) {RevOla} [24-44,1]
Стили:
Дата переиздания диска:
13 июня 2019
Издатель (лейбл):
Битрейт аудио:
lossless
Доп. инфо:

Формат записи/Источник записи: [TR24][OF]
Издание: Remastered
Год издания/переиздания диска: 1964/2019
Продолжительность: 00:37:33
Наличие сканов в содержимом раздачи: Нет

Контейнер: FLAC (*.flac)
Тип рипа: tracks
Разрядность: 24/44,1
Количество каналов: 2.0

Источник (релизер): Qobuz

Лог проверки качества
foobar2000 1.4.3 / Dynamic Range Meter 1.1.1
log date: 2020-10-28 07:16:13

--------------------------------------------------------------------------------
Analyzed: Anita O'Day / Incomparable!
--------------------------------------------------------------------------------

DR         Peak         RMS     Duration Track
--------------------------------------------------------------------------------
DR13      -3.16 dB   -19.73 dB      2:39 01-It Could Happen To You (Remastered)
DR13      -2.12 dB   -21.42 dB      2:38 02-Blue Champagne (Remastered)
DR13      -2.96 dB   -20.19 dB      2:14 03-Avalon (Remastered)
DR14      -2.18 dB   -21.70 dB      3:02 04-Old Devil Moon (Remastered)
DR14      -4.01 dB   -23.08 dB      3:11 05-The Party's Over (Remastered)
DR14      -3.70 dB   -21.84 dB      3:14 06-Why Shouldn't I? (Remastered)
DR13      -6.68 dB   -25.27 dB      3:21 07-Easy Living (Remastered)
DR13      -3.73 dB   -20.02 dB      2:18 08-Can't We Be Friends? (Remastered)
DR15      -2.27 dB   -21.57 dB      5:53 09-Slaughter On 10th Avenue (Remastered)
DR13      -4.85 dB   -21.90 dB      2:50 10-If I Love Again (Remastered)
DR13      -3.84 dB   -21.64 dB      3:05 11-Speak Low (Remastered)
DR13      -3.73 dB   -21.36 dB      3:14 12-Indian Summer (Remastered)
--------------------------------------------------------------------------------

Number of tracks:  12
Official DR value: DR13

Samplerate:        44100 Hz
Channels:          2
Bits per sample:   24
Bitrate:           1529 kbps
Codec:             FLAC
================================================================================
No seeders - write personal message to M0p94ok. Any questions - support@pro-jazz.com.
Нет сидеров - пишите в личку M0p94ok. Есть вопросы - support@pro-jazz.com
19:46
230
Нет комментариев. Ваш будет первым!