Поиск

2006 Duke Ellington - Take The A Train {Milan Music} [CD]

2006 Duke Ellington - Take The A Train {Milan Music} [CD]
Стили:
Дата записи диска:
12 апреля 1929 - 1 июля 1952
Издатель (лейбл):
Номер по каталогу:
339 012-2
Носитель:
CD
Тип рипа:
tracks+.cue
Аудиокодек:
FLAC (*.flac)
Битрейт аудио:
lossless
Время звучания:
01:11:32
Наличие сканов:
да
Страна-производитель диска (релиза):
Italy
Релизёр (источник):
Musicgate
Лог создания рипа
Exact Audio Copy V1.3 from 2. September 2016

EAC extraction logfile from 26. March 2020, 17:05

Duke Ellington / Take The A Train

Used drive  : HL-DT-STDVDRAM GH24NSD1   Adapter: 1  ID: 0

Read mode               : Secure
Utilize accurate stream : Yes
Defeat audio cache      : Yes
Make use of C2 pointers : No

Read offset correction                      : 6
Overread into Lead-In and Lead-Out          : No
Fill up missing offset samples with silence : Yes
Delete leading and trailing silent blocks   : No
Null samples used in CRC calculations       : Yes
Used interface                              : Native Win32 interface for Win NT & 2000
Gap handling                                : Appended to previous track

Used output format              : User Defined Encoder
Selected bitrate                : 1024 kBit/s
Quality                         : High
Add ID3 tag                     : No
Command line compressor         : C:\Program Files (x86)\Exact Audio Copy\FLAC\FLAC.EXE
Additional command line options : -V -8 -T "ARTIST=%artist%" -T "TITLE=%title%" -T "ALBUM=%albumtitle%" -T "DATE=%year%" -T "TRACKNUMBER=%tracknr%" -T "GENRE=%genre%" %source%

TOC of the extracted CD

     Track |   Start  |  Length  | Start sector | End sector
    ---------------------------------------------------------
        1  |  0:00.00 |  2:56.44 |         0    |    13243
        2  |  2:56.44 |  1:59.10 |     13244    |    22178
        3  |  4:55.54 |  3:10.07 |     22179    |    36435
        4  |  8:05.61 |  1:42.38 |     36436    |    44123
        5  |  9:48.24 |  2:59.61 |     44124    |    57609
        6  | 12:48.10 |  2:57.67 |     57610    |    70951
        7  | 15:46.02 |  2:53.35 |     70952    |    83961
        8  | 18:39.37 |  2:55.07 |     83962    |    97093
        9  | 21:34.44 |  2:13.10 |     97094    |   107078
       10  | 23:47.54 |  3:21.62 |    107079    |   122215
       11  | 27:09.41 |  4:35.40 |    122216    |   142880
       12  | 31:45.06 |  3:08.57 |    142881    |   157037
       13  | 34:53.63 |  2:57.47 |    157038    |   170359
       14  | 37:51.35 |  2:30.70 |    170360    |   181679
       15  | 40:22.30 |  2:41.57 |    181680    |   193811
       16  | 43:04.12 |  6:01.51 |    193812    |   220937
       17  | 49:05.63 |  4:07.33 |    220938    |   239495
       18  | 53:13.21 |  3:40.68 |    239496    |   256063
       19  | 56:54.14 |  6:38.50 |    256064    |   285963
       20  | 63:32.64 |  7:59.61 |    285964    |   321949

Track  1

     Filename D:\Music\Musicgate's rips\Duke Ellington - 2006 - Take The A Train (Milan Music 399 012-2) [CD+DVD]\CD\01. Take The A Train.wav

     Pre-gap length  0:00:02.00

     Peak level 98.8 %
     Extraction speed 0.9 X
     Track quality 99.9 %
     Test CRC CEDD30B0
     Copy CRC CEDD30B0
     Accurately ripped (confidence 1)  [D659F526]  (AR v2)
     Copy OK

Track  2

     Filename D:\Music\Musicgate's rips\Duke Ellington - 2006 - Take The A Train (Milan Music 399 012-2) [CD+DVD]\CD\02. Perdido.wav

     Pre-gap length  0:00:01.58

     Peak level 98.8 %
     Extraction speed 1.1 X
     Track quality 100.0 %
     Test CRC 31233967
     Copy CRC 31233967
     Accurately ripped (confidence 1)  [0E32D026]  (AR v2)
     Copy OK

Track  3

     Filename D:\Music\Musicgate's rips\Duke Ellington - 2006 - Take The A Train (Milan Music 399 012-2) [CD+DVD]\CD\03. Frankie And Johnnie.wav

     Pre-gap length  0:00:03.03

     Peak level 98.8 %
     Extraction speed 1.2 X
     Track quality 100.0 %
     Test CRC BA68146E
     Copy CRC BA68146E
     Accurately ripped (confidence 1)  [DFB2B108]  (AR v2)
     Copy OK

Track  4

     Filename D:\Music\Musicgate's rips\Duke Ellington - 2006 - Take The A Train (Milan Music 399 012-2) [CD+DVD]\CD\04. Introduction & Cotton Club Stomp.wav

     Pre-gap length  0:00:02.18

     Peak level 98.8 %
     Extraction speed 1.1 X
     Track quality 100.0 %
     Test CRC 30C51D68
     Copy CRC 30C51D68
     Accurately ripped (confidence 1)  [8C9232DE]  (AR v2)
     Copy OK

Track  5

     Filename D:\Music\Musicgate's rips\Duke Ellington - 2006 - Take The A Train (Milan Music 399 012-2) [CD+DVD]\CD\05. Misty Morning.wav

     Pre-gap length  0:00:01.58

     Peak level 98.8 %
     Extraction speed 1.3 X
     Track quality 100.0 %
     Test CRC B993CEED
     Copy CRC B993CEED
     Accurately ripped (confidence 1)  [2354F734]  (AR v2)
     Copy OK

Track  6

     Filename D:\Music\Musicgate's rips\Duke Ellington - 2006 - Take The A Train (Milan Music 399 012-2) [CD+DVD]\CD\06. Freeze And Melt.wav

     Pre-gap length  0:00:01.58

     Peak level 98.8 %
     Extraction speed 1.4 X
     Track quality 100.0 %
     Test CRC 5747D126
     Copy CRC 5747D126
     Accurately ripped (confidence 1)  [70C53E32]  (AR v2)
     Copy OK

Track  7

     Filename D:\Music\Musicgate's rips\Duke Ellington - 2006 - Take The A Train (Milan Music 399 012-2) [CD+DVD]\CD\07. Cotton Club Stomp.wav

     Pre-gap length  0:00:02.18

     Peak level 98.8 %
     Extraction speed 1.5 X
     Track quality 100.0 %
     Test CRC 0D5330C3
     Copy CRC 0D5330C3
     Accurately ripped (confidence 1)  [43D95B6F]  (AR v2)
     Copy OK

Track  8

     Filename D:\Music\Musicgate's rips\Duke Ellington - 2006 - Take The A Train (Milan Music 399 012-2) [CD+DVD]\CD\08. The Sheikh Of Araby.wav

     Pre-gap length  0:00:02.61

     Peak level 98.8 %
     Extraction speed 1.5 X
     Track quality 100.0 %
     Test CRC 340C4C77
     Copy CRC 340C4C77
     Accurately ripped (confidence 1)  [F5568DDA]  (AR v2)
     Copy OK

Track  9

     Filename D:\Music\Musicgate's rips\Duke Ellington - 2006 - Take The A Train (Milan Music 399 012-2) [CD+DVD]\CD\09. Ko Ko.wav

     Pre-gap length  0:00:02.18

     Peak level 98.8 %
     Extraction speed 1.2 X
     Track quality 99.9 %
     Test CRC 58E948C1
     Copy CRC 58E948C1
     Accurately ripped (confidence 1)  [F9B3F52E]  (AR v2)
     Copy OK

Track 10

     Filename D:\Music\Musicgate's rips\Duke Ellington - 2006 - Take The A Train (Milan Music 399 012-2) [CD+DVD]\CD\10. Harlem Airshaft.wav

     Pre-gap length  0:00:01.63

     Peak level 98.8 %
     Extraction speed 1.4 X
     Track quality 99.9 %
     Test CRC 03C2FC8F
     Copy CRC 03C2FC8F
     Accurately ripped (confidence 1)  [DF93AFF4]  (AR v2)
     Copy OK

Track 11

     Filename D:\Music\Musicgate's rips\Duke Ellington - 2006 - Take The A Train (Milan Music 399 012-2) [CD+DVD]\CD\11. Creole Love Call.wav

     Pre-gap length  0:00:02.58

     Peak level 98.8 %
     Extraction speed 1.6 X
     Track quality 99.9 %
     Test CRC 41FAC888
     Copy CRC 41FAC888
     Accurately ripped (confidence 1)  [B282F210]  (AR v2)
     Copy OK

Track 12

     Filename D:\Music\Musicgate's rips\Duke Ellington - 2006 - Take The A Train (Milan Music 399 012-2) [CD+DVD]\CD\12. It Don't Mean A Thing.wav

     Pre-gap length  0:00:01.33

     Peak level 83.1 %
     Extraction speed 1.8 X
     Track quality 100.0 %
     Test CRC BA2DF697
     Copy CRC BA2DF697
     Accurately ripped (confidence 1)  [14DD9204]  (AR v2)
     Copy OK

Track 13

     Filename D:\Music\Musicgate's rips\Duke Ellington - 2006 - Take The A Train (Milan Music 399 012-2) [CD+DVD]\CD\13. Solitude.wav

     Pre-gap length  0:00:01.18

     Peak level 98.8 %
     Extraction speed 1.6 X
     Track quality 99.9 %
     Test CRC 4CFE41E9
     Copy CRC 4CFE41E9
     Accurately ripped (confidence 1)  [E6770FF5]  (AR v2)
     Copy OK

Track 14

     Filename D:\Music\Musicgate's rips\Duke Ellington - 2006 - Take The A Train (Milan Music 399 012-2) [CD+DVD]\CD\14. Stormy Weather.wav

     Pre-gap length  0:00:02.18

     Peak level 98.8 %
     Extraction speed 1.8 X
     Track quality 100.0 %
     Test CRC E0640023
     Copy CRC E0640023
     Accurately ripped (confidence 1)  [59609178]  (AR v2)
     Copy OK

Track 15

     Filename D:\Music\Musicgate's rips\Duke Ellington - 2006 - Take The A Train (Milan Music 399 012-2) [CD+DVD]\CD\15. Moon Indigo.wav

     Pre-gap length  0:00:01.18

     Peak level 98.8 %
     Extraction speed 1.9 X
     Track quality 100.0 %
     Test CRC 8EE9BF62
     Copy CRC 8EE9BF62
     Accurately ripped (confidence 1)  [656A760E]  (AR v2)
     Copy OK

Track 16

     Filename D:\Music\Musicgate's rips\Duke Ellington - 2006 - Take The A Train (Milan Music 399 012-2) [CD+DVD]\CD\16. Sophisticated Lady.wav

     Pre-gap length  0:00:01.33

     Peak level 76.9 %
     Extraction speed 2.2 X
     Track quality 100.0 %
     Test CRC 284AD0C9
     Copy CRC 284AD0C9
     Accurately ripped (confidence 1)  [178A5B85]  (AR v2)
     Copy OK

Track 17

     Filename D:\Music\Musicgate's rips\Duke Ellington - 2006 - Take The A Train (Milan Music 399 012-2) [CD+DVD]\CD\17. Caravan.wav

     Pre-gap length  0:00:03.03

     Peak level 94.6 %
     Extraction speed 2.2 X
     Track quality 100.0 %
     Test CRC 875875AF
     Copy CRC 875875AF
     Accurately ripped (confidence 1)  [FB6977A8]  (AR v2)
     Copy OK

Track 18

     Filename D:\Music\Musicgate's rips\Duke Ellington - 2006 - Take The A Train (Milan Music 399 012-2) [CD+DVD]\CD\18. Jam With Sam.wav

     Pre-gap length  0:00:02.18

     Peak level 98.8 %
     Extraction speed 2.2 X
     Track quality 100.0 %
     Test CRC E07CD875
     Copy CRC E07CD875
     Accurately ripped (confidence 1)  [C413EF28]  (AR v2)
     Copy OK

Track 19

     Filename D:\Music\Musicgate's rips\Duke Ellington - 2006 - Take The A Train (Milan Music 399 012-2) [CD+DVD]\CD\19. The Mooche.wav

     Pre-gap length  0:00:01.05

     Peak level 98.8 %
     Extraction speed 2.4 X
     Track quality 100.0 %
     Test CRC A636343E
     Copy CRC A636343E
     Accurately ripped (confidence 1)  [F03B5EC6]  (AR v2)
     Copy OK

Track 20

     Filename D:\Music\Musicgate's rips\Duke Ellington - 2006 - Take The A Train (Milan Music 399 012-2) [CD+DVD]\CD\20. Take The A Train.wav

     Pre-gap length  0:00:02.18

     Peak level 98.8 %
     Extraction speed 2.6 X
     Track quality 100.0 %
     Test CRC 5CD79B19
     Copy CRC 5CD79B19
     Accurately ripped (confidence 1)  [C84640FA]  (AR v2)
     Copy OK

All tracks accurately ripped

No errors occurred

End of status report

---- CUETools DB Plugin V2.1.6

[CTDB TOCID: GcJWvpXbFzvEKhDeFmX1PDedvCs-] found
Submit result: already submitted
Track | CTDB Status
  1   | (3/3) Accurately ripped
  2   | (3/3) Accurately ripped
  3   | (3/3) Accurately ripped
  4   | (3/3) Accurately ripped
  5   | (3/3) Accurately ripped
  6   | (3/3) Accurately ripped
  7   | (3/3) Accurately ripped
  8   | (3/3) Accurately ripped
  9   | (3/3) Accurately ripped
 10   | (3/3) Accurately ripped
 11   | (3/3) Accurately ripped
 12   | (3/3) Accurately ripped
 13   | (3/3) Accurately ripped
 14   | (3/3) Accurately ripped
 15   | (3/3) Accurately ripped
 16   | (3/3) Accurately ripped
 17   | (3/3) Accurately ripped
 18   | (3/3) Accurately ripped
 19   | (3/3) Accurately ripped
 20   | (3/3) Accurately ripped

==== Log checksum FEB7E20BAFAE47D4B3B99E464C5946447A591CD57DD952F08AD5863972E9DC3E ====
No seeders - write personal message to M0p94ok. Any questions - support@pro-jazz.com.
Нет сидеров - пишите в личку M0p94ok. Есть вопросы - support@pro-jazz.com
11:47
57
Нет комментариев. Ваш будет первым!