Поиск

2009 Rocky Gresset - Rocky Gresset {Dreyfus Jazz} [CD]

2009 Rocky Gresset - Rocky Gresset {Dreyfus Jazz} [CD]
Дата записи диска:
8 марта - 10 марта 2009
Место записи:
Studio Ferber, Paris, France
Дата издания диска:
12 октября 2009
Издатель (лейбл):
Номер по каталогу:
FDM 46050 369422
Носитель:
CD
Тип рипа:
tracks+.cue
Аудиокодек:
FLAC (*.flac)
Битрейт аудио:
lossless
Время звучания:
00:50:06
Наличие сканов:
да
Страна-производитель диска (релиза):
France
Релизёр (источник):
dtromp (REDacted)
Доп. инфо:

mixed June 18-19, 2009, mastered June 29, 2009, at Studio Ferber, Paris, France

Лог создания рипа
Exact Audio Copy V1.0 beta 1 from 15. November 2010

EAC extraction logfile from 8. April 2011, 20:47

Rocky Gresset / Rocky Gresset

Used drive  : PLEXTOR DVDR   PX-860A   Adapter: 0  ID: 0

Read mode               : Secure
Utilize accurate stream : Yes
Defeat audio cache      : Yes
Make use of C2 pointers : No

Read offset correction                      : 96
Overread into Lead-In and Lead-Out          : No
Fill up missing offset samples with silence : Yes
Delete leading and trailing silent blocks   : No
Null samples used in CRC calculations       : Yes
Used interface                              : Native Win32 interface for Win NT & 2000
Gap handling                                : Appended to previous track

Used output format              : User Defined Encoder
Selected bitrate                : 1024 kBit/s
Quality                         : High
Add ID3 tag                     : No
Command line compressor         : C:\Program Files\Exact Audio Copy\flac.exe
Additional command line options : -8 -V -T "ARTIST=%a" -T "TITLE=%t" -T "ALBUM=%g" -T "DATE=%y" -T "TRACKNUMBER=%n" -T "TOTALTRACKS=%x" -T "GENRE=%m" -T "ALBUM ARTIST=%v" -T "ALBUMARTIST=%v" -T "COMMENT=EAC V1.0 beta 1, Secure Mode, Test & Copy, AccurateRip

TOC of the extracted CD

     Track |   Start  |  Length  | Start sector | End sector
    ---------------------------------------------------------
        1  |  0:00.00 |  2:49.73 |         0    |    12747
        2  |  2:49.73 |  3:49.29 |     12748    |    29951
        3  |  6:39.27 |  4:39.59 |     29952    |    50935
        4  | 11:19.11 |  3:25.23 |     50936    |    66333
        5  | 14:44.34 |  4:36.70 |     66334    |    87103
        6  | 19:21.29 |  4:31.34 |     87104    |   107462
        7  | 23:52.63 |  3:32.44 |    107463    |   123406
        8  | 27:25.32 |  4:22.27 |    123407    |   143083
        9  | 31:47.59 |  6:11.11 |    143084    |   170919
       10  | 37:58.70 |  2:46.65 |    170920    |   183434
       11  | 40:45.60 |  4:04.00 |    183435    |   201734
       12  | 44:49.60 |  4:09.17 |    201735    |   220426
       13  | 48:59.02 |  1:07.31 |    220427    |   225482

Track  1

     Filename S:\DL\Rocky Gresset - Rocky Gresset (2009) [FLAC]\01 - The way you look tonight.wav

     Pre-gap length  0:00:02.00

     Peak level 100.0 %
     Extraction speed 4.2 X
     Track quality 100.0 %
     Test CRC 7F0FDEA8
     Copy CRC 7F0FDEA8
     Accurately ripped (confidence 2)  [7A9DF7FF]
     Copy OK

Track  2

     Filename S:\DL\Rocky Gresset - Rocky Gresset (2009) [FLAC]\02 - Blue Skies.wav

     Pre-gap length  0:00:01.15

     Peak level 100.0 %
     Extraction speed 4.9 X
     Track quality 100.0 %
     Test CRC AD7B9577
     Copy CRC AD7B9577
     Accurately ripped (confidence 3)  [CE87F51D]
     Copy OK

Track  3

     Filename S:\DL\Rocky Gresset - Rocky Gresset (2009) [FLAC]\03 - My Foolish heart.wav

     Pre-gap length  0:00:01.34

     Peak level 100.0 %
     Extraction speed 5.5 X
     Track quality 100.0 %
     Test CRC 4235A01E
     Copy CRC 4235A01E
     Accurately ripped (confidence 3)  [A4652A67]
     Copy OK

Track  4

     Filename S:\DL\Rocky Gresset - Rocky Gresset (2009) [FLAC]\04 - Jingles.wav

     Pre-gap length  0:00:00.43

     Peak level 100.0 %
     Extraction speed 5.6 X
     Track quality 100.0 %
     Test CRC 375088FE
     Copy CRC 375088FE
     Accurately ripped (confidence 3)  [C86D3996]
     Copy OK

Track  5

     Filename S:\DL\Rocky Gresset - Rocky Gresset (2009) [FLAC]\05 - Dream of you.wav

     Pre-gap length  0:00:00.59

     Peak level 100.0 %
     Extraction speed 5.6 X
     Track quality 99.9 %
     Test CRC D1044957
     Copy CRC D1044957
     Accurately ripped (confidence 3)  [795E2DAF]
     Copy OK

Track  6

     Filename S:\DL\Rocky Gresset - Rocky Gresset (2009) [FLAC]\06 - Looking up.wav

     Pre-gap length  0:00:01.51

     Peak level 100.0 %
     Extraction speed 3.2 X
     Track quality 99.7 %
     Test CRC 67A775B0
     Copy CRC 67A775B0
     Accurately ripped (confidence 3)  [C5B0885A]
     Copy OK

Track  7

     Filename S:\DL\Rocky Gresset - Rocky Gresset (2009) [FLAC]\07 - Just one of those things.wav

     Pre-gap length  0:00:00.16

     Peak level 100.0 %
     Extraction speed 6.7 X
     Track quality 100.0 %
     Test CRC F99FC482
     Copy CRC F99FC482
     Accurately ripped (confidence 3)  [54A756E2]
     Copy OK

Track  8

     Filename S:\DL\Rocky Gresset - Rocky Gresset (2009) [FLAC]\08 - Ballade pour Rose.wav

     Pre-gap length  0:00:00.44

     Peak level 100.0 %
     Extraction speed 7.1 X
     Track quality 100.0 %
     Test CRC BA025452
     Copy CRC BA025452
     Accurately ripped (confidence 3)  [1B5185C8]
     Copy OK

Track  9

     Filename S:\DL\Rocky Gresset - Rocky Gresset (2009) [FLAC]\09 - Polka dots and moonbeams.wav

     Pre-gap length  0:00:01.23

     Peak level 100.0 %
     Extraction speed 7.8 X
     Track quality 100.0 %
     Test CRC 2A68CDC4
     Copy CRC 2A68CDC4
     Accurately ripped (confidence 3)  [C74279E7]
     Copy OK

Track 10

     Filename S:\DL\Rocky Gresset - Rocky Gresset (2009) [FLAC]\10 - Darn that dream.wav

     Pre-gap length  0:00:00.71

     Peak level 100.0 %
     Extraction speed 7.2 X
     Track quality 100.0 %
     Test CRC 137F2C79
     Copy CRC 137F2C79
     Accurately ripped (confidence 3)  [008F6FC4]
     Copy OK

Track 11

     Filename S:\DL\Rocky Gresset - Rocky Gresset (2009) [FLAC]\11 - Webster.wav

     Pre-gap length  0:00:00.72

     Peak level 100.0 %
     Extraction speed 8.0 X
     Track quality 100.0 %
     Test CRC B4C7629E
     Copy CRC B4C7629E
     Accurately ripped (confidence 3)  [5A8C0724]
     Copy OK

Track 12

     Filename S:\DL\Rocky Gresset - Rocky Gresset (2009) [FLAC]\12 - Times on my hands.wav

     Pre-gap length  0:00:00.52

     Peak level 100.0 %
     Extraction speed 8.2 X
     Track quality 100.0 %
     Test CRC 0C9357E4
     Copy CRC 0C9357E4
     Accurately ripped (confidence 3)  [0FB8B02D]
     Copy OK

Track 13

     Filename S:\DL\Rocky Gresset - Rocky Gresset (2009) [FLAC]\13 - Pour Toi.wav

     Pre-gap length  0:00:00.37

     Peak level 97.7 %
     Extraction speed 4.4 X
     Track quality 99.8 %
     Test CRC 717AD9DB
     Copy CRC 717AD9DB
     Accurately ripped (confidence 3)  [59354AF7]
     Copy OK

All tracks accurately ripped

No errors occurred

End of status report

==== Log checksum 4CEB299E95DF6B689296C4B67CB3637431507F0B0D49EE241BAC44E45B7F8B16 ====
No seeders - write personal message to M0p94ok. Any questions - support@pro-jazz.com.
Нет сидеров - пишите в личку M0p94ok. Есть вопросы - support@pro-jazz.com
18:31
47
Нет комментариев. Ваш будет первым!