Вы используете незарегистрированную версию компонента "Вкладки"!

Поиск

1992 Duke Ellington - Harlemania 1928-1929, Vol. 5 {EPM, Hot'N'Sweet} [CD]

1992 Duke Ellington - Harlemania 1928-1929, Vol. 5 {EPM, Hot'N'Sweet} [CD]
Стили:
Дата записи диска:
15 ноября 1928 - 28 февраля 1929
Номер по каталогу:
151282
Носитель:
CD
Тип рипа:
tracks+.cue
Аудиокодек:
FLAC (*.flac)
Битрейт аудио:
lossless
Время звучания:
01:15:18
Наличие сканов:
да
Страна-производитель диска (релиза):
USA
Релизёр (источник):
Musicgate
Лог создания рипа
Exact Audio Copy V1.3 from 2. September 2016

EAC extraction logfile from 24. March 2020, 19:16

Duke Ellington / Vol. 5 Harlemania 1928-1929

Used drive  : HL-DT-STDVDRAM GH24NSD1   Adapter: 1  ID: 0

Read mode               : Secure
Utilize accurate stream : Yes
Defeat audio cache      : Yes
Make use of C2 pointers : No

Read offset correction                      : 6
Overread into Lead-In and Lead-Out          : No
Fill up missing offset samples with silence : Yes
Delete leading and trailing silent blocks   : No
Null samples used in CRC calculations       : Yes
Used interface                              : Native Win32 interface for Win NT & 2000
Gap handling                                : Appended to previous track

Used output format              : User Defined Encoder
Selected bitrate                : 1024 kBit/s
Quality                         : High
Add ID3 tag                     : No
Command line compressor         : C:\Program Files (x86)\Exact Audio Copy\FLAC\FLAC.EXE
Additional command line options : -V -8 -T "ARTIST=%artist%" -T "TITLE=%title%" -T "ALBUM=%albumtitle%" -T "DATE=%year%" -T "TRACKNUMBER=%tracknr%" -T "GENRE=%genre%" %source%

TOC of the extracted CD

     Track |   Start  |  Length  | Start sector | End sector
    ---------------------------------------------------------
        1  |  0:00.32 |  3:22.58 |        32    |    15239
        2  |  3:23.15 |  3:16.57 |     15240    |    29996
        3  |  6:39.72 |  2:58.48 |     29997    |    43394
        4  |  9:38.45 |  3:19.70 |     43395    |    58389
        5  | 12:58.40 |  4:10.65 |     58390    |    77204
        6  | 17:09.30 |  4:13.72 |     77205    |    96251
        7  | 21:23.27 |  4:31.35 |     96252    |   116611
        8  | 25:54.62 |  3:12.48 |    116612    |   131059
        9  | 29:07.35 |  2:54.17 |    131060    |   144126
       10  | 32:01.52 |  5:48.05 |    144127    |   170231
       11  | 37:49.57 |  3:15.58 |    170232    |   184914
       12  | 41:05.40 |  3:21.20 |    184915    |   200009
       13  | 44:26.60 |  3:09.10 |    200010    |   214194
       14  | 47:35.70 |  3:12.65 |    214195    |   228659
       15  | 50:48.60 |  3:09.55 |    228660    |   242889
       16  | 53:58.40 |  3:31.55 |    242890    |   258769
       17  | 57:30.20 |  2:56.57 |    258770    |   272026
       18  | 60:27.02 | 14:52.23 |    272027    |   338949

Track  1

     Filename D:\Music\Musicgate's rips\Duke Ellington - Vol. 5 Harlemania 1928-1929 - 1992 (Hot'N'Sweet 151282) [FLAC]\01. I Must Have That Man.wav

     Pre-gap length  0:00:02.32

     Peak level 78.1 %
     Extraction speed 1.1 X
     Track quality 100.0 %
     Test CRC 33BFB233
     Copy CRC 33BFB233
     Track not present in AccurateRip database
     Copy OK

Track  2

     Filename D:\Music\Musicgate's rips\Duke Ellington - Vol. 5 Harlemania 1928-1929 - 1992 (Hot'N'Sweet 151282) [FLAC]\02. The Blues With A Feelin'.wav

     Pre-gap length  0:00:01.08

     Peak level 79.2 %
     Extraction speed 1.2 X
     Track quality 100.0 %
     Test CRC 7BD38F1D
     Copy CRC 7BD38F1D
     Track not present in AccurateRip database
     Copy OK

Track  3

     Filename D:\Music\Musicgate's rips\Duke Ellington - Vol. 5 Harlemania 1928-1929 - 1992 (Hot'N'Sweet 151282) [FLAC]\03. Goin' To Town.wav

     Pre-gap length  0:00:01.35

     Peak level 68.6 %
     Extraction speed 1.1 X
     Track quality 99.9 %
     Test CRC 22F07127
     Copy CRC 22F07127
     Track not present in AccurateRip database
     Copy OK

Track  4

     Filename D:\Music\Musicgate's rips\Duke Ellington - Vol. 5 Harlemania 1928-1929 - 1992 (Hot'N'Sweet 151282) [FLAC]\04. Misty Mornin'.wav

     Pre-gap length  0:00:01.23

     Peak level 86.5 %
     Extraction speed 1.4 X
     Track quality 100.0 %
     Test CRC 79998941
     Copy CRC 79998941
     Track not present in AccurateRip database
     Copy OK

Track  5

     Filename D:\Music\Musicgate's rips\Duke Ellington - Vol. 5 Harlemania 1928-1929 - 1992 (Hot'N'Sweet 151282) [FLAC]\05. St. Louis Blues (take 1).wav

     Pre-gap length  0:00:01.03

     Peak level 70.9 %
     Extraction speed 1.5 X
     Track quality 100.0 %
     Test CRC A6BF3523
     Copy CRC A6BF3523
     Track not present in AccurateRip database
     Copy OK

Track  6

     Filename D:\Music\Musicgate's rips\Duke Ellington - Vol. 5 Harlemania 1928-1929 - 1992 (Hot'N'Sweet 151282) [FLAC]\06. St. Louis Blues (take 2).wav

     Pre-gap length  0:00:01.13

     Peak level 78.9 %
     Extraction speed 1.5 X
     Track quality 99.9 %
     Test CRC 9D47EF55
     Copy CRC 9D47EF55
     Track not present in AccurateRip database
     Copy OK

Track  7

     Filename D:\Music\Musicgate's rips\Duke Ellington - Vol. 5 Harlemania 1928-1929 - 1992 (Hot'N'Sweet 151282) [FLAC]\07. Gems From ''Blackbirds Of 1928''.wav

     Pre-gap length  0:00:01.07

     Peak level 68.6 %
     Extraction speed 1.8 X
     Track quality 100.0 %
     Test CRC 110F30CF
     Copy CRC 110F30CF
     Track not present in AccurateRip database
     Copy OK

Track  8

     Filename D:\Music\Musicgate's rips\Duke Ellington - Vol. 5 Harlemania 1928-1929 - 1992 (Hot'N'Sweet 151282) [FLAC]\08. Doin' The Voom Voom.wav

     Pre-gap length  0:00:01.22

     Peak level 88.7 %
     Extraction speed 1.7 X
     Track quality 100.0 %
     Test CRC 02FC395E
     Copy CRC 02FC395E
     Track not present in AccurateRip database
     Copy OK

Track  9

     Filename D:\Music\Musicgate's rips\Duke Ellington - Vol. 5 Harlemania 1928-1929 - 1992 (Hot'N'Sweet 151282) [FLAC]\09. Tiger Rag (Part 1 - take A).wav

     Pre-gap length  0:00:01.20

     Peak level 77.9 %
     Extraction speed 1.8 X
     Track quality 100.0 %
     Test CRC AB802CD3
     Copy CRC AB802CD3
     Track not present in AccurateRip database
     Copy OK

Track 10

     Filename D:\Music\Musicgate's rips\Duke Ellington - Vol. 5 Harlemania 1928-1929 - 1992 (Hot'N'Sweet 151282) [FLAC]\10. Tiger Rag (Part 1 & 2 - tk B,tk A).wav

     Pre-gap length  0:00:00.67

     Peak level 75.6 %
     Extraction speed 2.0 X
     Track quality 100.0 %
     Test CRC 5FF3B6CD
     Copy CRC 5FF3B6CD
     Track not present in AccurateRip database
     Copy OK

Track 11

     Filename D:\Music\Musicgate's rips\Duke Ellington - Vol. 5 Harlemania 1928-1929 - 1992 (Hot'N'Sweet 151282) [FLAC]\11. Flaming Youth (take 1).wav

     Pre-gap length  0:00:02.60

     Peak level 72.9 %
     Extraction speed 2.0 X
     Track quality 100.0 %
     Test CRC DE40F43D
     Copy CRC DE40F43D
     Track not present in AccurateRip database
     Copy OK

Track 12

     Filename D:\Music\Musicgate's rips\Duke Ellington - Vol. 5 Harlemania 1928-1929 - 1992 (Hot'N'Sweet 151282) [FLAC]\12. Flaming Youth (take 2).wav

     Pre-gap length  0:00:01.18

     Peak level 79.4 %
     Extraction speed 2.0 X
     Track quality 100.0 %
     Test CRC A417EFFE
     Copy CRC A417EFFE
     Track not present in AccurateRip database
     Copy OK

Track 13

     Filename D:\Music\Musicgate's rips\Duke Ellington - Vol. 5 Harlemania 1928-1929 - 1992 (Hot'N'Sweet 151282) [FLAC]\13. Saturday Night Function.wav

     Pre-gap length  0:00:01.08

     Peak level 86.3 %
     Extraction speed 2.1 X
     Track quality 100.0 %
     Test CRC D0BE8615
     Copy CRC D0BE8615
     Track not present in AccurateRip database
     Copy OK

Track 14

     Filename D:\Music\Musicgate's rips\Duke Ellington - Vol. 5 Harlemania 1928-1929 - 1992 (Hot'N'Sweet 151282) [FLAC]\14. High Life.wav

     Pre-gap length  0:00:01.13

     Peak level 100.0 %
     Extraction speed 1.8 X
     Track quality 99.9 %
     Test CRC FB16FDE8
     Copy CRC FB16FDE8
     Track not present in AccurateRip database
     Copy OK

Track 15

     Filename D:\Music\Musicgate's rips\Duke Ellington - Vol. 5 Harlemania 1928-1929 - 1992 (Hot'N'Sweet 151282) [FLAC]\15. Doin' The Voom Voom.wav

     Pre-gap length  0:00:01.10

     Peak level 84.3 %
     Extraction speed 2.2 X
     Track quality 100.0 %
     Test CRC 3ABA7C43
     Copy CRC 3ABA7C43
     Track not present in AccurateRip database
     Copy OK

Track 16

     Filename D:\Music\Musicgate's rips\Duke Ellington - Vol. 5 Harlemania 1928-1929 - 1992 (Hot'N'Sweet 151282) [FLAC]\16. Japanese Dream.wav

     Pre-gap length  0:00:01.13

     Peak level 80.7 %
     Extraction speed 2.3 X
     Track quality 100.0 %
     Test CRC F38F607F
     Copy CRC F38F607F
     Track not present in AccurateRip database
     Copy OK

Track 17

     Filename D:\Music\Musicgate's rips\Duke Ellington - Vol. 5 Harlemania 1928-1929 - 1992 (Hot'N'Sweet 151282) [FLAC]\17. Harlemania.wav

     Pre-gap length  0:00:01.03

     Peak level 86.4 %
     Extraction speed 2.3 X
     Track quality 100.0 %
     Test CRC 652AF838
     Copy CRC 652AF838
     Track not present in AccurateRip database
     Copy OK

Track 18

     Filename D:\Music\Musicgate's rips\Duke Ellington - Vol. 5 Harlemania 1928-1929 - 1992 (Hot'N'Sweet 151282) [FLAC]\18. Meedley From ''Black And Tan Fantasy'' Film.wav

     Pre-gap length  0:00:01.25

     Peak level 97.6 %
     Extraction speed 2.8 X
     Track quality 100.0 %
     Test CRC 79BCDA0D
     Copy CRC 79BCDA0D
     Track not present in AccurateRip database
     Copy OK

None of the tracks are present in the AccurateRip database

No errors occurred

End of status report

---- CUETools DB Plugin V2.1.6

[CTDB TOCID: Yrl2L3dewAPogv3.2aih5H8sAEM-] disk not present in database
Submit result: Yrl2L3dewAPogv3.2aih5H8sAEM- has been uploaded

==== Log checksum 095B18BBCB35EAD7477414C7A6DC57C7FBFF1AFDB35A1726558D7BBCE57486E7 ====
Any questions - support@pro-jazz.com. Есть вопросы - support@pro-jazz.com
10:47
63
Нет комментариев. Ваш будет первым!