Поиск

1986 Acker Bilk - The Magic Clarinet Of Acker Bilk {K-Tel} [CD]

1986 Acker Bilk - The Magic Clarinet Of Acker Bilk {K-Tel} [CD]
Стили:
Дата издания диска:
1 января 1986
Битрейт аудио:
lossless
Лог создания рипа
X Lossless Decoder version 20130602 (143.2)

XLD extraction logfile from 2016-12-31 17:55:37 -0500

Acker Bilk / The Magic Clarinet of Acker Bilk

Used drive : OPTIARC DVD RW AD-5680H (revision 3AHB)
Media type : Pressed CD

Ripper mode             : XLD Secure Ripper
Disable audio cache     : OK for the drive with a cache less than 1375KiB
Make use of C2 pointers : NO
Read offset correction  : 48
Max retry count         : 100
Gap status              : Analyzed, Appended

TOC of the extracted CD
     Track |   Start  |  Length  | Start sector | End sector
    ---------------------------------------------------------
        1  | 00:00:00 | 02:53:35 |         0    |    13009
        2  | 02:53:35 | 03:03:62 |     13010    |    26796
        3  | 05:57:22 | 03:19:18 |     26797    |    41739
        4  | 09:16:40 | 03:14:52 |     41740    |    56341
        5  | 12:31:17 | 03:02:68 |     56342    |    70059
        6  | 15:34:10 | 04:00:42 |     70060    |    88101
        7  | 19:34:52 | 02:38:20 |     88102    |    99971
        8  | 22:12:72 | 04:05:50 |     99972    |   118396
        9  | 26:18:47 | 04:14:58 |    118397    |   137504
       10  | 30:33:30 | 03:43:15 |    137505    |   154244
       11  | 34:16:45 | 02:44:07 |    154245    |   166551
       12  | 37:00:52 | 02:48:58 |    166552    |   179209
       13  | 39:49:35 | 03:18:47 |    179210    |   194106
       14  | 43:08:07 | 02:51:25 |    194107    |   206956
       15  | 45:59:32 | 02:36:70 |    206957    |   218726
       16  | 48:36:27 | 03:43:58 |    218727    |   235509

List of alternate offset correction values
        #  | Absolute | Relative | Confidence
    ------------------------------------------
        1  |    682   |    634   |      2

AccurateRip Summary (DiscID: 001ea0c1-0170ffe7-e60c4410)
    Track 01 : OK (v2, confidence 2/2, with different offset)
    Track 02 : OK (v2, confidence 2/2, with different offset)
    Track 03 : OK (v2, confidence 2/2, with different offset)
    Track 04 : OK (v2, confidence 2/2, with different offset)
    Track 05 : OK (v2, confidence 2/2, with different offset)
    Track 06 : OK (v2, confidence 2/2, with different offset)
    Track 07 : OK (v2, confidence 2/2, with different offset)
    Track 08 : OK (v2, confidence 2/2, with different offset)
    Track 09 : OK (v2, confidence 2/2, with different offset)
    Track 10 : OK (v2, confidence 2/2, with different offset)
    Track 11 : OK (v2, confidence 2/2, with different offset)
    Track 12 : OK (v2, confidence 2/2, with different offset)
    Track 13 : OK (v2, confidence 2/2, with different offset)
    Track 14 : OK (v2, confidence 2/2, with different offset)
    Track 15 : OK (v2, confidence 2/2, with different offset)
    Track 16 : OK (v2, confidence 2/2, with different offset)
        ->All tracks accurately ripped.

All Tracks
    Album gain               : 1.74 dB
    Peak                     : 0.771973
    Statistics
        Read error                           : 0
        Jitter error (maybe fixed)           : 0
        Retry sector count                   : 0
        Damaged sector count                 : 0

Track 01
    Filename : /rips/Acker Bilk - The Magic Clarinet of Acker Bilk (1986) [FLAC]/01 Jean.flac
    Pre-gap length : 00:02:00

    Track gain               : 2.16 dB
    Peak                     : 0.630829
    CRC32 hash (test run)    : 34319A06
    CRC32 hash               : 34319A06
    CRC32 hash (skip zero)   : 5CEEC9B0
    AccurateRip v1 signature : 719512D2
    AccurateRip v2 signature : C79482A4 (A9103E42 w/correction)
        ->Accurately ripped with different offset (v2, confidence 2/2, offset +634)
    Statistics
        Read error                           : 0
        Jitter error (maybe fixed)           : 0
        Retry sector count                   : 0
        Damaged sector count                 : 0

Track 02
    Filename : /rips/Acker Bilk - The Magic Clarinet of Acker Bilk (1986) [FLAC]/02 We've Only Just Begun.flac
    Pre-gap length : 00:00:38

    Track gain               : 2.47 dB
    Peak                     : 0.765930
    CRC32 hash (test run)    : 5B3B1EF2
    CRC32 hash               : 5B3B1EF2
    CRC32 hash (skip zero)   : 44A30725
    AccurateRip v1 signature : FFDCCDCD
    AccurateRip v2 signature : F12C5614 (0F66B809 w/correction)
        ->Accurately ripped with different offset (v2, confidence 2/2, offset +634)
    Statistics
        Read error                           : 0
        Jitter error (maybe fixed)           : 0
        Retry sector count                   : 0
        Damaged sector count                 : 0

Track 03
    Filename : /rips/Acker Bilk - The Magic Clarinet of Acker Bilk (1986) [FLAC]/03 The Rose.flac
    Pre-gap length : 00:00:37

    Track gain               : 4.91 dB
    Peak                     : 0.684387
    CRC32 hash (test run)    : A0FEC811
    CRC32 hash               : A0FEC811
    CRC32 hash (skip zero)   : 48D85C16
    AccurateRip v1 signature : 1EC2DFF5
    AccurateRip v2 signature : 17281966 (63BBD437 w/correction)
        ->Accurately ripped with different offset (v2, confidence 2/2, offset +634)
    Statistics
        Read error                           : 0
        Jitter error (maybe fixed)           : 0
        Retry sector count                   : 0
        Damaged sector count                 : 0

Track 04
    Filename : /rips/Acker Bilk - The Magic Clarinet of Acker Bilk (1986) [FLAC]/04 Eres Tu (Touch the Wind).flac
    Pre-gap length : 00:00:38

    Track gain               : 2.89 dB
    Peak                     : 0.593933
    CRC32 hash (test run)    : 8D1F36A4
    CRC32 hash               : 8D1F36A4
    CRC32 hash (skip zero)   : 0CD2F378
    AccurateRip v1 signature : 72648AC9
    AccurateRip v2 signature : 780A71C4 (761D9ACD w/correction)
        ->Accurately ripped with different offset (v2, confidence 2/2, offset +634)
    Statistics
        Read error                           : 0
        Jitter error (maybe fixed)           : 0
        Retry sector count                   : 0
        Damaged sector count                 : 0

Track 05
    Filename : /rips/Acker Bilk - The Magic Clarinet of Acker Bilk (1986) [FLAC]/05 Morning Has Broken.flac
    Pre-gap length : 00:00:37

    Track gain               : 4.26 dB
    Peak                     : 0.351105
    CRC32 hash (test run)    : 017CC41D
    CRC32 hash               : 017CC41D
    CRC32 hash (skip zero)   : 75991E77
    AccurateRip v1 signature : 4B65831E
    AccurateRip v2 signature : A1FB252C (444436A5 w/correction)
        ->Accurately ripped with different offset (v2, confidence 2/2, offset +634)
    Statistics
        Read error                           : 0
        Jitter error (maybe fixed)           : 0
        Retry sector count                   : 0
        Damaged sector count                 : 0

Track 06
    Filename : /rips/Acker Bilk - The Magic Clarinet of Acker Bilk (1986) [FLAC]/06 You're the Best Thing That Ever Happened to Me.flac
    Pre-gap length : 00:00:38

    Track gain               : 0.93 dB
    Peak                     : 0.625580
    CRC32 hash (test run)    : 8EF70B36
    CRC32 hash               : 8EF70B36
    CRC32 hash (skip zero)   : EFBEA860
    AccurateRip v1 signature : 0260ACE2
    AccurateRip v2 signature : 9DEE8F86 (18316FD2 w/correction)
        ->Accurately ripped with different offset (v2, confidence 2/2, offset +634)
    Statistics
        Read error                           : 0
        Jitter error (maybe fixed)           : 0
        Retry sector count                   : 0
        Damaged sector count                 : 0

Track 07
    Filename : /rips/Acker Bilk - The Magic Clarinet of Acker Bilk (1986) [FLAC]/07 I Left My Heart in San Francisco.flac
    Pre-gap length : 00:00:37

    Track gain               : 1.64 dB
    Peak                     : 0.442383
    CRC32 hash (test run)    : CAAFD586
    CRC32 hash               : CAAFD586
    CRC32 hash (skip zero)   : F985ED51
    AccurateRip v1 signature : 7BAE60B3
    AccurateRip v2 signature : 98AF8ACA (1461A409 w/correction)
        ->Accurately ripped with different offset (v2, confidence 2/2, offset +634)
    Statistics
        Read error                           : 0
        Jitter error (maybe fixed)           : 0
        Retry sector count                   : 0
        Damaged sector count                 : 0

Track 08
    Filename : /rips/Acker Bilk - The Magic Clarinet of Acker Bilk (1986) [FLAC]/08 I Can't Stop Loving You.flac
    Pre-gap length : 00:00:37

    Track gain               : 4.49 dB
    Peak                     : 0.377136
    CRC32 hash (test run)    : D1EDE4F7
    CRC32 hash               : D1EDE4F7
    CRC32 hash (skip zero)   : A43342CD
    AccurateRip v1 signature : CAE77B55
    AccurateRip v2 signature : C0410062 (B0A1873E w/correction)
        ->Accurately ripped with different offset (v2, confidence 2/2, offset +634)
    Statistics
        Read error                           : 0
        Jitter error (maybe fixed)           : 0
        Retry sector count                   : 0
        Damaged sector count                 : 0

Track 09
    Filename : /rips/Acker Bilk - The Magic Clarinet of Acker Bilk (1986) [FLAC]/09 Hey Jude.flac
    Pre-gap length : 00:00:37

    Track gain               : 1.26 dB
    Peak                     : 0.668274
    CRC32 hash (test run)    : 06B6303D
    CRC32 hash               : 06B6303D
    CRC32 hash (skip zero)   : 2842DB7E
    AccurateRip v1 signature : 6C0E06A3
    AccurateRip v2 signature : BE3AB984 (98FA79DC w/correction)
        ->Accurately ripped with different offset (v2, confidence 2/2, offset +634)
    Statistics
        Read error                           : 0
        Jitter error (maybe fixed)           : 0
        Retry sector count                   : 0
        Damaged sector count                 : 0

Track 10
    Filename : /rips/Acker Bilk - The Magic Clarinet of Acker Bilk (1986) [FLAC]/10 The First Time Ever I Saw Your Face.flac
    Pre-gap length : 00:00:38

    Track gain               : 1.16 dB
    Peak                     : 0.532471
    CRC32 hash (test run)    : CA11C196
    CRC32 hash               : CA11C196
    CRC32 hash (skip zero)   : 221503E9
    AccurateRip v1 signature : 24138FE3
    AccurateRip v2 signature : EB712899 (6B23DB2C w/correction)
        ->Accurately ripped with different offset (v2, confidence 2/2, offset +634)
    Statistics
        Read error                           : 0
        Jitter error (maybe fixed)           : 0
        Retry sector count                   : 0
        Damaged sector count                 : 0

Track 11
    Filename : /rips/Acker Bilk - The Magic Clarinet of Acker Bilk (1986) [FLAC]/11 Ramblin' Rose.flac
    Pre-gap length : 00:00:38

    Track gain               : 1.85 dB
    Peak                     : 0.458557
    CRC32 hash (test run)    : 9C4790F2
    CRC32 hash               : 9C4790F2
    CRC32 hash (skip zero)   : E3962AB1
    AccurateRip v1 signature : BEA6385A
    AccurateRip v2 signature : F6B3A476 (CFD4273D w/correction)
        ->Accurately ripped with different offset (v2, confidence 2/2, offset +634)
    Statistics
        Read error                           : 0
        Jitter error (maybe fixed)           : 0
        Retry sector count                   : 0
        Damaged sector count                 : 0

Track 12
    Filename : /rips/Acker Bilk - The Magic Clarinet of Acker Bilk (1986) [FLAC]/12 If I Give My Heart to You.flac
    Pre-gap length : 00:00:37

    Track gain               : 0.71 dB
    Peak                     : 0.729584
    CRC32 hash (test run)    : 6B26F9BE
    CRC32 hash               : 6B26F9BE
    CRC32 hash (skip zero)   : 93477920
    AccurateRip v1 signature : 28B60915
    AccurateRip v2 signature : 9C04336C (F2069B3A w/correction)
        ->Accurately ripped with different offset (v2, confidence 2/2, offset +634)
    Statistics
        Read error                           : 0
        Jitter error (maybe fixed)           : 0
        Retry sector count                   : 0
        Damaged sector count                 : 0

Track 13
    Filename : /rips/Acker Bilk - The Magic Clarinet of Acker Bilk (1986) [FLAC]/13 Never My Love.flac
    Pre-gap length : 00:00:38

    Track gain               : 1.75 dB
    Peak                     : 0.569153
    CRC32 hash (test run)    : 00518C93
    CRC32 hash               : 00518C93
    CRC32 hash (skip zero)   : 87AC92A2
    AccurateRip v1 signature : 4B4FEDEA
    AccurateRip v2 signature : 37815752 (B127BE48 w/correction)
        ->Accurately ripped with different offset (v2, confidence 2/2, offset +634)
    Statistics
        Read error                           : 0
        Jitter error (maybe fixed)           : 0
        Retry sector count                   : 0
        Damaged sector count                 : 0

Track 14
    Filename : /rips/Acker Bilk - The Magic Clarinet of Acker Bilk (1986) [FLAC]/14 Stranger on the Shore.flac
    Pre-gap length : 00:00:37

    Track gain               : 0.25 dB
    Peak                     : 0.572876
    CRC32 hash (test run)    : C57F49E6
    CRC32 hash               : C57F49E6
    CRC32 hash (skip zero)   : 53F215F1
    AccurateRip v1 signature : 4F22F8AC
    AccurateRip v2 signature : D71905AD (E6BBC3E9 w/correction)
        ->Accurately ripped with different offset (v2, confidence 2/2, offset +634)
    Statistics
        Read error                           : 0
        Jitter error (maybe fixed)           : 0
        Retry sector count                   : 0
        Damaged sector count                 : 0

Track 15
    Filename : /rips/Acker Bilk - The Magic Clarinet of Acker Bilk (1986) [FLAC]/15 Let It Be Me.flac
    Pre-gap length : 00:00:37

    Track gain               : 0.65 dB
    Peak                     : 0.572571
    CRC32 hash (test run)    : 06702F11
    CRC32 hash               : 06702F11
    CRC32 hash (skip zero)   : B3074B62
    AccurateRip v1 signature : 5C65E9C0
    AccurateRip v2 signature : 6AADA936 (2432599F w/correction)
        ->Accurately ripped with different offset (v2, confidence 2/2, offset +634)
    Statistics
        Read error                           : 0
        Jitter error (maybe fixed)           : 0
        Retry sector count                   : 0
        Damaged sector count                 : 0

Track 16
    Filename : /rips/Acker Bilk - The Magic Clarinet of Acker Bilk (1986) [FLAC]/16 My Way.flac
    Pre-gap length : 00:00:37

    Track gain               : 2.38 dB
    Peak                     : 0.771973
    CRC32 hash (test run)    : CC1CCD46
    CRC32 hash               : CC1CCD46
    CRC32 hash (skip zero)   : 8BCC5CB4
    AccurateRip v1 signature : 14344AA0
    AccurateRip v2 signature : 57461F6C (E248E8CB w/correction)
        ->Accurately ripped with different offset (v2, confidence 2/2, offset +634)
    Statistics
        Read error                           : 0
        Jitter error (maybe fixed)           : 0
        Retry sector count                   : 0
        Damaged sector count                 : 0

No errors occurred

End of status report

-----BEGIN XLD SIGNATURE-----
Yj9YQIh1qsyXBFbXg8vxpBeX8pegNDURwH8w9U0udvjR16_jBWr0K8ZDlMLuzzF4voFzPiTMkzjqhz6DbR67izQb77wVnRR.x9LYezW
-----END XLD SIGNATURE-----
No seeders - write personal message to M0p94ok. Any questions - support@pro-jazz.com.
Нет сидеров - пишите в личку M0p94ok. Есть вопросы - support@pro-jazz.com
19:36
39
Нет комментариев. Ваш будет первым!