Поиск

1996 Claude Bolling Big Band - A Drum Is a Woman {Milan Jazz} [CD]

1996 Claude Bolling Big Band - A Drum Is a Woman {Milan Jazz} [CD]
Стили:
Битрейт аудио:
lossless
Доп. инфо:

Носитель: CD
Страна-производитель диска (релиза): EU
Год издания: 1996
Издатель (лейбл): Milan Jazz
Номер по каталогу: 74321 40906-2
Аудиокодек: FLAC (*.flac)
Тип рипа: tracks+.cue
Продолжительность: 00:56:20
Источник: Jazzanova667
Наличие сканов в содержимом раздачи: нет

В 1956 году по телевидению транслировалось шоу Дюка Эллингтона «Барабан - это женщина». Несмотря на использование оркестра Эллингтона, акцент был сделан на несколько абстрактной и причудливой сюжетной линии с участием персонажей по имени Madame Zajj и Carribee Joe. Задж, рожденная как барабан Джо, путешествует по миру и становится известной, но все еще мечтает о Кэриби Джо, который предпочел остаться в джунглях. Спустя сорок лет после телепередачи Эллингтона французский руководитель группы Клод Боллинг оживил историю для шоу и эту запись. Джеффри Смит является рассказчиком (иногда звучит немного как Герцог Эллингтон), и он разделяет вокал с Лайкой и Франсин Ромен, а к нему присоединяется Оркестр Клода Боллинга. Спектакль «Возрождение» сделан хорошо, но оригинальная история настолько странна, что результаты - просто историческое любопытство.

Лог создания рипа
Exact Audio Copy V1.3 from 2. September 2016

EAC extraction logfile from 31. December 2019, 13:37

Claude Bolling / A Drum Is A Woman

Used drive  : PBDS    DVD+-RW DS-8W1P   Adapter: 1  ID: 0

Read mode               : Secure
Utilize accurate stream : Yes
Defeat audio cache      : Yes
Make use of C2 pointers : No

Read offset correction                      : 594
Overread into Lead-In and Lead-Out          : No
Fill up missing offset samples with silence : Yes
Delete leading and trailing silent blocks   : No
Null samples used in CRC calculations       : Yes
Used interface                              : Native Win32 interface for Win NT & 2000
Gap handling                                : Appended to previous track

Used output format              : User Defined Encoder
Selected bitrate                : 1024 kBit/s
Quality                         : High
Add ID3 tag                     : No
Command line compressor         : C:\Program Files (x86)\Exact Audio Copy\Flac\flac.exe
Additional command line options : -8 -V -T "ARTIST=%artist%" -T "TITLE=%title%" -T "ALBUM=%albumtitle%" -T "DATE=%year%" -T "TRACKNUMBER=%tracknr%" -T "GENRE=%genre%" -T "PERFORMER=%albuminterpret%" -T "COMPOSER=%composer%" %haslyrics%--tag-from-file=LYRICS="%lyricsfile%"%haslyrics% -T "ALBUMARTIST=%albumartist%" -T "DISCNUMBER=%cdnumber%" -T "TOTALDISCS=%totalcds%" -T "TOTALTRACKS=%numtracks%" -T "COMMENT=%comment%" %source% -o %dest%

TOC of the extracted CD

     Track |   Start  |  Length  | Start sector | End sector
    ---------------------------------------------------------
        1  |  0:00.30 |  4:05.24 |        30    |    18428
        2  |  4:05.54 |  3:50.00 |     18429    |    35678
        3  |  7:55.54 |  1:59.18 |     35679    |    44621
        4  |  9:54.72 |  2:39.09 |     44622    |    56555
        5  | 12:34.06 |  6:04.53 |     56556    |    83908
        6  | 18:38.59 |  3:47.59 |     83909    |   100992
        7  | 22:26.43 |  6:50.03 |    100993    |   131745
        8  | 29:16.46 |  3:05.43 |    131746    |   145663
        9  | 32:22.14 |  2:54.65 |    145664    |   158778
       10  | 35:17.04 |  4:48.10 |    158779    |   180388
       11  | 40:05.14 |  5:26.11 |    180389    |   204849
       12  | 45:31.25 |  3:29.31 |    204850    |   220555
       13  | 49:00.56 |  2:13.32 |    220556    |   230562
       14  | 51:14.13 |  3:57.72 |    230563    |   248409
       15  | 55:12.10 |  1:08.64 |    248410    |   253573

Track  1

     Filename C:\Users\olivi\Desktop\Rips\01 - Claude Bolling - A Drum Is A Woman.wav

     Pre-gap length  0:00:02.40

     Peak level 93.8 %
     Extraction speed 1.5 X
     Track quality 99.9 %
     Test CRC 62ADE1BC
     Copy CRC 62ADE1BC
     Track not present in AccurateRip database
     Copy OK

Track  2

     Filename C:\Users\olivi\Desktop\Rips\02 - Claude Bolling - Rhythm Pum Te Dum.wav

     Peak level 79.1 %
     Extraction speed 2.1 X
     Track quality 100.0 %
     Test CRC F8A37290
     Copy CRC F8A37290
     Track not present in AccurateRip database
     Copy OK

Track  3

     Filename C:\Users\olivi\Desktop\Rips\03 - Claude Bolling - What Else Can You Do With A Drum.wav

     Peak level 64.7 %
     Extraction speed 1.8 X
     Track quality 100.0 %
     Test CRC 4FA1CE3C
     Copy CRC 4FA1CE3C
     Track not present in AccurateRip database
     Copy OK

Track  4

     Filename C:\Users\olivi\Desktop\Rips\04 - Claude Bolling - New Orleans.wav

     Peak level 96.2 %
     Extraction speed 2.0 X
     Track quality 100.0 %
     Test CRC 0EB32362
     Copy CRC 0EB32362
     Track not present in AccurateRip database
     Copy OK

Track  5

     Filename C:\Users\olivi\Desktop\Rips\05 - Claude Bolling - Hey, Buddy Bolden.wav

     Peak level 99.9 %
     Extraction speed 2.2 X
     Track quality 100.0 %
     Test CRC A332CBA0
     Copy CRC A332CBA0
     Track not present in AccurateRip database
     Copy OK

Track  6

     Filename C:\Users\olivi\Desktop\Rips\06 - Claude Bolling - Caribee Joe.wav

     Peak level 94.0 %
     Extraction speed 2.1 X
     Track quality 100.0 %
     Test CRC C3B43041
     Copy CRC C3B43041
     Track not present in AccurateRip database
     Copy OK

Track  7

     Filename C:\Users\olivi\Desktop\Rips\07 - Claude Bolling - Congo Square.wav

     Peak level 100.0 %
     Extraction speed 1.8 X
     Track quality 99.9 %
     Test CRC 82E88E5A
     Copy CRC 82E88E5A
     Track not present in AccurateRip database
     Copy OK

Track  8

     Filename C:\Users\olivi\Desktop\Rips\08 - Claude Bolling - A Drum Is A Woman Part 2.wav

     Peak level 93.4 %
     Extraction speed 1.4 X
     Track quality 99.9 %
     Test CRC A2648D6D
     Copy CRC A2648D6D
     Track not present in AccurateRip database
     Copy OK

Track  9

     Filename C:\Users\olivi\Desktop\Rips\09 - Claude Bolling - You Better Know It.wav

     Peak level 98.9 %
     Extraction speed 2.0 X
     Track quality 100.0 %
     Test CRC EAF6563D
     Copy CRC EAF6563D
     Track not present in AccurateRip database
     Copy OK

Track 10

     Filename C:\Users\olivi\Desktop\Rips\10 - Claude Bolling - Madam Zajj.wav

     Peak level 97.9 %
     Extraction speed 1.6 X
     Track quality 99.9 %
     Test CRC C024573C
     Copy CRC C024573C
     Track not present in AccurateRip database
     Copy OK

Track 11

     Filename C:\Users\olivi\Desktop\Rips\11 - Claude Bolling - Ballet Of The Flyin' Saucers.wav

     Peak level 98.9 %
     Extraction speed 2.2 X
     Track quality 100.0 %
     Test CRC 4FEC7824
     Copy CRC 4FEC7824
     Track not present in AccurateRip database
     Copy OK

Track 12

     Filename C:\Users\olivi\Desktop\Rips\12 - Claude Bolling - Zajj's Dream.wav

     Peak level 98.9 %
     Extraction speed 2.1 X
     Track quality 100.0 %
     Test CRC 0EAD51E6
     Copy CRC 0EAD51E6
     Track not present in AccurateRip database
     Copy OK

Track 13

     Filename C:\Users\olivi\Desktop\Rips\13 - Claude Bolling - Rhumbop.wav

     Peak level 96.9 %
     Extraction speed 1.1 X
     Track quality 99.9 %
     Test CRC 43991416
     Copy CRC 43991416
     Track not present in AccurateRip database
     Copy OK

Track 14

     Filename C:\Users\olivi\Desktop\Rips\14 - Claude Bolling - Carribee Joe Part 2.wav

     Peak level 90.2 %
     Extraction speed 2.1 X
     Track quality 100.0 %
     Test CRC 90328364
     Copy CRC 90328364
     Track not present in AccurateRip database
     Copy OK

Track 15

     Filename C:\Users\olivi\Desktop\Rips\15 - Claude Bolling - Final.wav

     Peak level 98.9 %
     Extraction speed 1.6 X
     Track quality 100.0 %
     Test CRC 37018B7F
     Copy CRC 37018B7F
     Track not present in AccurateRip database
     Copy OK

None of the tracks are present in the AccurateRip database

No errors occurred

End of status report

---- CUETools DB Plugin V2.1.6

[CTDB TOCID: JYtuXaZUj57h1AzT7iFEJpLUFn0-] found
Submit result: JYtuXaZUj57h1AzT7iFEJpLUFn0- has been confirmed
Track | CTDB Status
  1   | (2/2) Accurately ripped
  2   | (2/2) Accurately ripped
  3   | (2/2) Accurately ripped
  4   | (2/2) Accurately ripped
  5   | (2/2) Accurately ripped
  6   | (2/2) Accurately ripped
  7   | (2/2) Accurately ripped
  8   | (2/2) Accurately ripped
  9   | (2/2) Accurately ripped
 10   | (2/2) Accurately ripped
 11   | (2/2) Accurately ripped
 12   | (1/2) Accurately ripped
 13   | (1/2) Accurately ripped
 14   | (2/2) Accurately ripped
 15   | (2/2) Accurately ripped

==== Log checksum 05F937049C58EA95AA81D75C396FEACDCA6767B176E426D773554F44CE6F9CFB ====
No seeders - write personal message to M0p94ok. Any questions - support@pro-jazz.com.
Нет сидеров - пишите в личку M0p94ok. Есть вопросы - support@pro-jazz.com
14:48
43
Нет комментариев. Ваш будет первым!