Вы используете незарегистрированную версию компонента "Вкладки"!

Поиск

1997 Yves Teicher - Fiddler On The Groove {BMG} [СD]

1997 Yves Teicher - Fiddler On The Groove {BMG} [СD]
Дата издания диска:
17 ноября 1997
Издатель (лейбл):
Битрейт аудио:
lossless
Доп. инфо:

Носитель: CD
Страна-производитель диска (релиза): Франция
Год издания: 1997
Номер по каталогу: 74321474892
Аудиокодек: FLAC (*.flac)
Тип рипа: tracks+.cue
Продолжительность: 01:01:35
Источник: Jazzanova667
Наличие сканов в содержимом раздачи: нет

Лог создания рипа
Exact Audio Copy V1.3 from 2. September 2016

EAC extraction logfile from 30. December 2019, 13:11

Yves Teicher / Fiddler On The Groove

Used drive  :         MATSHITADVD-RAM   Adapter: 1  ID: 0

Read mode               : Secure
Utilize accurate stream : Yes
Defeat audio cache      : Yes
Make use of C2 pointers : No

Read offset correction                      : 103
Overread into Lead-In and Lead-Out          : No
Fill up missing offset samples with silence : Yes
Delete leading and trailing silent blocks   : No
Null samples used in CRC calculations       : Yes
Used interface                              : Native Win32 interface for Win NT & 2000
Gap handling                                : Appended to previous track

Used output format              : User Defined Encoder
Selected bitrate                : 1024 kBit/s
Quality                         : High
Add ID3 tag                     : No
Command line compressor         : C:\Program Files (x86)\FLAC\flac.exe
Additional command line options : -8 -e -p -V -T "ARTIST=%artist%" -T "TITLE=%title%" -T "ALBUM=%albumtitle%" -T "DATE=%year%" -T "TRACKNUMBER=%tracknr%" -T "GENRE=%genre%" -T "PERFORMER=%albuminterpret%" -T "COMPOSER=%composer%" %haslyrics%--tag-from-file=LYRICS="%lyricsfile%"%haslyrics% -T "ALBUMARTIST=%albumartist%" -T "DISCNUMBER=%cdnumber%" -T "TOTALDISCS=%totalcds%" -T "TOTALTRACKS=%numtracks%" -T "COMMENT=%comment%" %source% -o %dest%

TOC of the extracted CD

     Track |   Start  |  Length  | Start sector | End sector
    ---------------------------------------------------------
        1  |  0:00.33 |  4:20.15 |        33    |    19547
        2  |  4:20.48 |  3:55.30 |     19548    |    37202
        3  |  8:16.03 |  5:04.40 |     37203    |    60042
        4  | 13:20.43 |  2:48.22 |     60043    |    72664
        5  | 16:08.65 |  4:31.35 |     72665    |    93024
        6  | 20:40.25 |  3:59.23 |     93025    |   110972
        7  | 24:39.48 |  2:00.57 |    110973    |   120029
        8  | 26:40.30 |  1:04.05 |    120030    |   124834
        9  | 27:44.35 |  2:43.43 |    124835    |   137102
       10  | 30:28.03 |  3:25.57 |    137103    |   152534
       11  | 33:53.60 |  3:00.18 |    152535    |   166052
       12  | 36:54.03 |  4:10.37 |    166053    |   184839
       13  | 41:04.40 |  3:28.23 |    184840    |   200462
       14  | 44:32.63 |  4:27.72 |    200463    |   220559
       15  | 49:00.60 |  3:49.35 |    220560    |   237769
       16  | 52:50.20 |  2:08.38 |    237770    |   247407
       17  | 54:58.58 |  0:22.52 |    247408    |   249109
       18  | 55:21.35 |  2:54.50 |    249110    |   262209
       19  | 58:16.10 |  3:19.40 |    262210    |   277174

Track  1

     Filename C:\Users\Mummy\Desktop\Rips\01 - Yves Teicher - Les Yeux Noirs.wav

     Pre-gap length  0:00:02.44

     Peak level 100.0 %
     Extraction speed 1.4 X
     Track quality 100.0 %
     Test CRC 4AA31C7D
     Copy CRC 4AA31C7D
     Track not present in AccurateRip database
     Copy OK

Track  2

     Filename C:\Users\Mummy\Desktop\Rips\02 - Yves Teicher - Paganini By Night.wav

     Peak level 100.0 %
     Extraction speed 1.4 X
     Track quality 99.9 %
     Test CRC 116ECF44
     Copy CRC 116ECF44
     Track not present in AccurateRip database
     Copy OK

Track  3

     Filename C:\Users\Mummy\Desktop\Rips\03 - Yves Teicher - Feelings.wav

     Peak level 100.0 %
     Extraction speed 1.8 X
     Track quality 100.0 %
     Test CRC EF668AA1
     Copy CRC EF668AA1
     Track not present in AccurateRip database
     Copy OK

Track  4

     Filename C:\Users\Mummy\Desktop\Rips\04 - Yves Teicher - Blues For Chantal.wav

     Peak level 100.0 %
     Extraction speed 1.5 X
     Track quality 99.9 %
     Test CRC 147930BE
     Copy CRC 147930BE
     Track not present in AccurateRip database
     Copy OK

Track  5

     Filename C:\Users\Mummy\Desktop\Rips\05 - Yves Teicher - Tears.wav

     Peak level 100.0 %
     Extraction speed 2.0 X
     Track quality 100.0 %
     Test CRC 4A4EBAB4
     Copy CRC 4A4EBAB4
     Track not present in AccurateRip database
     Copy OK

Track  6

     Filename C:\Users\Mummy\Desktop\Rips\06 - Yves Teicher - Hitch.wav

     Peak level 100.0 %
     Extraction speed 2.1 X
     Track quality 100.0 %
     Test CRC 648A5D7F
     Copy CRC 648A5D7F
     Track not present in AccurateRip database
     Copy OK

Track  7

     Filename C:\Users\Mummy\Desktop\Rips\07 - Yves Teicher - Indifference.wav

     Peak level 100.0 %
     Extraction speed 1.9 X
     Track quality 100.0 %
     Test CRC 3B7D7405
     Copy CRC 3B7D7405
     Track not present in AccurateRip database
     Copy OK

Track  8

     Filename C:\Users\Mummy\Desktop\Rips\08 - Yves Teicher - Accordage I.wav

     Peak level 78.5 %
     Extraction speed 1.2 X
     Track quality 99.8 %
     Test CRC 273EC165
     Copy CRC 273EC165
     Track not present in AccurateRip database
     Copy OK

Track  9

     Filename C:\Users\Mummy\Desktop\Rips\09 - Yves Teicher - Bei Mir Bist Du Schoen.wav

     Peak level 100.0 %
     Extraction speed 2.2 X
     Track quality 100.0 %
     Test CRC EECAA5E1
     Copy CRC EECAA5E1
     Track not present in AccurateRip database
     Copy OK

Track 10

     Filename C:\Users\Mummy\Desktop\Rips\10 - Yves Teicher - Ne Me Quitte Pas.wav

     Peak level 99.7 %
     Extraction speed 2.3 X
     Track quality 100.0 %
     Test CRC 50DC2968
     Copy CRC 50DC2968
     Track not present in AccurateRip database
     Copy OK

Track 11

     Filename C:\Users\Mummy\Desktop\Rips\11 - Yves Teicher - It Begins In La Mola.wav

     Peak level 100.0 %
     Extraction speed 2.0 X
     Track quality 99.9 %
     Test CRC E99466C5
     Copy CRC E99466C5
     Track not present in AccurateRip database
     Copy OK

Track 12

     Filename C:\Users\Mummy\Desktop\Rips\12 - Yves Teicher - Je Chante Pour Toi.wav

     Peak level 64.6 %
     Extraction speed 2.6 X
     Track quality 100.0 %
     Test CRC 4EA6FC1D
     Copy CRC 4EA6FC1D
     Track not present in AccurateRip database
     Copy OK

Track 13

     Filename C:\Users\Mummy\Desktop\Rips\13 - Yves Teicher - Variations Sur Nuages.wav

     Peak level 67.8 %
     Extraction speed 2.5 X
     Track quality 100.0 %
     Test CRC 57139935
     Copy CRC 57139935
     Track not present in AccurateRip database
     Copy OK

Track 14

     Filename C:\Users\Mummy\Desktop\Rips\14 - Yves Teicher - Ivry Sur Seine.wav

     Peak level 100.0 %
     Extraction speed 2.8 X
     Track quality 100.0 %
     Test CRC 24DEC478
     Copy CRC 24DEC478
     Track not present in AccurateRip database
     Copy OK

Track 15

     Filename C:\Users\Mummy\Desktop\Rips\15 - Yves Teicher - Imagine.wav

     Peak level 100.0 %
     Extraction speed 2.8 X
     Track quality 100.0 %
     Test CRC 64CFB951
     Copy CRC 64CFB951
     Track not present in AccurateRip database
     Copy OK

Track 16

     Filename C:\Users\Mummy\Desktop\Rips\16 - Yves Teicher - Eté 42.wav

     Peak level 93.8 %
     Extraction speed 2.5 X
     Track quality 100.0 %
     Test CRC F6A9C958
     Copy CRC F6A9C958
     Track not present in AccurateRip database
     Copy OK

Track 17

     Filename C:\Users\Mummy\Desktop\Rips\17 - Yves Teicher - Accordage II.wav

     Peak level 78.2 %
     Extraction speed 1.2 X
     Track quality 100.0 %
     Test CRC A1A2DA7D
     Copy CRC A1A2DA7D
     Track not present in AccurateRip database
     Copy OK

Track 18

     Filename C:\Users\Mummy\Desktop\Rips\18 - Yves Teicher - Round About Midnight.wav

     Peak level 71.3 %
     Extraction speed 2.8 X
     Track quality 100.0 %
     Test CRC 78541106
     Copy CRC 78541106
     Track not present in AccurateRip database
     Copy OK

Track 19

     Filename C:\Users\Mummy\Desktop\Rips\19 - Yves Teicher - Elucubrations Dans Les Feuilles Mortes.wav

     Peak level 99.7 %
     Extraction speed 2.5 X
     Track quality 99.9 %
     Test CRC A084D7A7
     Copy CRC A084D7A7
     Track not present in AccurateRip database
     Copy OK

None of the tracks are present in the AccurateRip database

No errors occurred

End of status report

---- CUETools DB Plugin V2.1.6

[CTDB TOCID: B.BsV_zSO6zVkOOUV5CTQRZQqyY-] found
Submit result: unrecognized or virtual drive
Track | CTDB Status
  1   | (1/1) Accurately ripped
  2   | (1/1) Accurately ripped
  3   | (1/1) Accurately ripped
  4   | (1/1) Accurately ripped
  5   | (1/1) Accurately ripped
  6   | (1/1) Accurately ripped
  7   | (1/1) Accurately ripped
  8   | (1/1) Accurately ripped
  9   | (1/1) Accurately ripped
 10   | (1/1) Accurately ripped
 11   | (1/1) Accurately ripped
 12   | (1/1) Accurately ripped
 13   | (1/1) Accurately ripped
 14   | (1/1) Accurately ripped
 15   | (1/1) Accurately ripped
 16   | (1/1) Accurately ripped
 17   | (1/1) Accurately ripped
 18   | (1/1) Accurately ripped
 19   | (1/1) Accurately ripped

==== Log checksum 9A857919ED27E49CE51F29799C55F8DA6161AFF0224480327241F4B080F144F5 ====
Any questions - support@pro-jazz.com. Есть вопросы - support@pro-jazz.com
13:15
44
Нет комментариев. Ваш будет первым!