Поиск

2003 Olaf Polziehn Trio feat. Harry Allen - American Songbook, Vol. 2 {Satin Doll Productions} [CD]

2003 Olaf Polziehn Trio feat. Harry Allen - American Songbook, Vol. 2 {Satin Doll Productions} [CD]
Стили:
Номер по каталогу:
SDP 1046-1
Носитель:
CD
Тип рипа:
image+.cue
Аудиокодек:
FLAC (*.flac)
Битрейт аудио:
lossless
Время звучания:
01:13:41
Наличие сканов:
только обложка

Треклист:

01. Love Me or Leave Me  06:00
02. Ballad of the Sad Young Men  06:04
03. Jubilee  04:30
04. Call Me Darling, Call Me Sweetheart, Call Me Dear  07:48
05. Daydream  07:34
06. Main Stem  06:31
07. The Things We Did Last Summer  05:13
08. Indian Summer  05:40
09. Legs  06:19
10. Drop Me off in Harlem  03:41
11. Apple Honey  05:00
12. Moonlight in Vermont  04:51
13. That Old Black Magic  04:29

Состав:
  • Harry Allen(ts)
  • Olaf Polziehn(p)
  • Ingmar Heller(b)
  • Oliver Mewes(ds)
Лог создания рипа
Exact Audio Copy V1.3 from 2. September 2016
EAC extraction logfile from 29. July 2017, 18:42
Olaf Polziehn Trio feat Harry Allen / American Songbook Vol. 2
Used drive  : Optiarc DVD RW AD-7243S   Adapter: 1  ID: 0
Read mode               : Secure
Utilize accurate stream : Yes
Defeat audio cache      : Yes
Make use of C2 pointers : No
Read offset correction                      : 48
Overread into Lead-In and Lead-Out          : No
Fill up missing offset samples with silence : Yes
Delete leading and trailing silent blocks   : No
Null samples used in CRC calculations       : Yes
Used interface                              : Native Win32 interface for Win NT & 2000
Used output format              : User Defined Encoder
Selected bitrate                : 112 kBit/s
Quality                         : High
Add ID3 tag                     : No
Command line compressor         : C:\Program Files (x86)\Exact Audio Copy\Flac\flac.exe
Additional command line options : -T "artist=%artist%" -T "title=%title%" -T "album=%albumtitle%" -T "date=%year%" -T "tracknumber=%tracknr%" -T "genre=%genre%" -5 %source%
TOC of the extracted CD
     Track |   Start  |  Length  | Start sector | End sector
    ---------------------------------------------------------
        1  |  0:00.00 |  6:00.60 |         0    |    27059
        2  |  6:00.60 |  6:04.47 |     27060    |    54406
        3  | 12:05.32 |  4:30.45 |     54407    |    74701
        4  | 16:36.02 |  7:48.60 |     74702    |   109861
        5  | 24:24.62 |  7:34.73 |    109862    |   143984
        6  | 31:59.60 |  6:31.15 |    143985    |   173324
        7  | 38:31.00 |  5:13.62 |    173325    |   196861
        8  | 43:44.62 |  5:40.47 |    196862    |   222408
        9  | 49:25.34 |  6:19.58 |    222409    |   250891
       10  | 55:45.17 |  3:41.13 |    250892    |   267479
       11  | 59:26.30 |  5:00.22 |    267480    |   290001
       12  | 64:26.52 |  4:51.45 |    290002    |   311871
       13  | 69:18.22 |  4:29.13 |    311872    |   332059
Range status and errors
Selected range
     Filename H:\sax\Новая папка\EAC\Olaf Polziehn Trio feat Harry Allen - American Songbook Vol. 2\Olaf Polziehn Trio feat Harry Allen - American Songbook Vol. 2.wav
     Peak level 98.9 %
     Extraction speed 4.5 X
     Range quality 100.0 %
     Test CRC F9A20F31
     Copy CRC F9A20F31
     Copy OK
No errors occurred
End of status report
---- CUETools DB Plugin V2.1.6
[CTDB TOCID: 2ezQ68TZKIR0OMe_A_KQieaXKBg-] found
Submit result: 2ezQ68TZKIR0OMe_A_KQieaXKBg- has been confirmed
Track | CTDB Status
  1   | (3/3) Accurately ripped
  2   | (3/3) Accurately ripped
  3   | (3/3) Accurately ripped
  4   | (3/3) Accurately ripped
  5   | (3/3) Accurately ripped
  6   | (3/3) Accurately ripped
  7   | (3/3) Accurately ripped
  8   | (3/3) Accurately ripped
  9   | (3/3) Accurately ripped
 10   | (3/3) Accurately ripped
 11   | (3/3) Accurately ripped
 12   | (3/3) Accurately ripped
 13   | (3/3) Accurately ripped
==== Log checksum 9983C50A44FBB41F3AA75BDEC5DC5246069B291B5A0A49AA643C464C09B5822C ====
Download available for power users only.
20:36
110
Нет комментариев. Ваш будет первым!