Поиск

2002 Harry Allen - I Can See Forever {BMG Funhouse, Inc.} [CD]

2002 Harry Allen - I Can See Forever {BMG Funhouse, Inc.} [CD]
Дата записи диска:
10 февраля - 12 февраля 2002
Место записи:
Nola Recording Studios, NYC.
Дата издания диска:
22 мая 2022
Издатель (лейбл):
Номер по каталогу:
BVCJ-34019
Носитель:
CD
Тип рипа:
tracks
Аудиокодек:
FLAC (*.flac)
Битрейт аудио:
lossless
Время звучания:
00:57:40
Наличие сканов:
только обложка

Треклист:

01. Wave    4:11
02. So Many Stars    5:39
03. The Telephone Song    4:53
04. O Grande Amor    4:56
05. I Can See Forever    4:03
06. Manha Do Carnaval (Orfeu Negro)    4:30
07. Ela E Carioca    5:52
08. A Time For Love    4:52
09. Be Careful, It's My Heart    4:54
10. A Felicidade    5:08
11. And I Love Her    5:47
12. The Summer Knows    2:48

Состав:
  •     Bass – Ron Carter (tracks: 1 to 3, 5 to 11)
  •     Drums – Grady Tate (tracks: 1 to 3, 5 to 11)
  •     Engineer [Assistant] – Bill Moss (2), Dan Hewins
  •     Flute – Sumiko Fukatsu (tracks: 1, 2, 5, 10)
  •     Guitar – Guilherme Monteiro (tracks: 1 to 11)
  •     Guitar, Mandolin, Cavaquinho – Jay Berliner (tracks: 1 to 3, 5 to 12)
  •     Liner Notes [Japanese] – Takao Ogawa
  •     Mastered By – Hiromichi Takiguchi
  •     Percussion – Joe Ascione
  •     Producer – Ikuyoshi Hirakawa
  •     Recorded By – Jim Czak
  •     Tenor Saxophone, Producer – Harry Allen (2)
Лог создания рипа
Exact Audio Copy V1.3 from 2. September 2016
EAC extraction logfile from 14. April 2020, 17:16
Harry Allen / I Can See Forever
Used drive  : Optiarc DVD RW AD-7243S   Adapter: 1  ID: 0
Read mode               : Secure
Utilize accurate stream : Yes
Defeat audio cache      : Yes
Make use of C2 pointers : No
Read offset correction                      : 48
Overread into Lead-In and Lead-Out          : No
Fill up missing offset samples with silence : Yes
Delete leading and trailing silent blocks   : No
Null samples used in CRC calculations       : Yes
Used interface                              : Native Win32 interface for Win NT & 2000
Used output format              : User Defined Encoder
Selected bitrate                : 112 kBit/s
Quality                         : High
Add ID3 tag                     : No
Command line compressor         : C:\Program Files (x86)\Exact Audio Copy\Flac\flac.exe
Additional command line options : -T "artist=%artist%" -T "title=%title%" -T "album=%albumtitle%" -T "date=%year%" -T "tracknumber=%tracknr%" -T "genre=%genre%" -5 %source%
TOC of the extracted CD
     Track |   Start  |  Length  | Start sector | End sector
    ---------------------------------------------------------
        1  |  0:00.00 |  4:13.27 |         0    |    19001
        2  |  4:13.27 |  5:39.70 |     19002    |    44496
        3  |  9:53.22 |  4:54.08 |     44497    |    66554
        4  | 14:47.30 |  4:56.72 |     66555    |    88826
        5  | 19:44.27 |  4:03.30 |     88827    |   107081
        6  | 23:47.57 |  4:30.23 |    107082    |   127354
        7  | 28:18.05 |  5:52.02 |    127355    |   153756
        8  | 34:10.07 |  4:52.23 |    153757    |   175679
        9  | 39:02.30 |  4:53.52 |    175680    |   197706
       10  | 43:56.07 |  5:08.20 |    197707    |   220826
       11  | 49:04.27 |  5:48.30 |    220827    |   246956
       12  | 54:52.57 |  2:47.35 |    246957    |   259516
Range status and errors
Selected range
     Filename M:\Sound\Harry Allen\2002 I Can See Forever\02\Harry Allen - I Can See Forever.wav
     Peak level 98.0 %
     Extraction speed 4.0 X
     Range quality 100.0 %
     Test CRC 085141C7
     Copy CRC 085141C7
     Copy OK
No errors occurred
End of status report
---- CUETools DB Plugin V2.1.6
[CTDB TOCID: L4e0n0HimVGkJ5y.Ngg3OjzAxRo-] found
Submit result: already submitted
Track | CTDB Status
  1   | (28/28) Accurately ripped
  2   | (28/28) Accurately ripped
  3   | (28/28) Accurately ripped
  4   | (28/28) Accurately ripped
  5   | (28/28) Accurately ripped
  6   | (28/28) Accurately ripped
  7   | (28/28) Accurately ripped
  8   | (28/28) Accurately ripped
  9   | (28/28) Accurately ripped
 10   | (28/28) Accurately ripped
 11   | (28/28) Accurately ripped
 12   | (28/28) Accurately ripped
==== Log checksum 89F9129E2677EB08D3FD02F4F05314ED68FD1C28CB8CEC018176C5F41EF4D2D0 ====
08:58
368
Нет комментариев. Ваш будет первым!