Поиск

2004 Harry Allen & Hank Jones Trio - Isn't This a Lovely Day {BMG Funhouse, Inc.} [CD]

2004 Harry Allen & Hank Jones Trio - Isn't This a Lovely Day {BMG Funhouse, Inc.} [CD]
Стили:
Дата записи диска:
26 августа - 27 августа 2004
Место записи:
Nola Recording Studios, NYC
Дата издания диска:
24 ноября 2004
Издатель (лейбл):
Номер по каталогу:
BVCJ34030
Носитель:
CD
Тип рипа:
tracks
Аудиокодек:
FLAC (*.flac)
Битрейт аудио:
lossless
Время звучания:
00:59:31
Наличие сканов:
только обложка
Треклист:

01. Isn't This a Lovely Day
02. I'm in the Mood for Love
03. Sweet Lorraine
04. All My Tomorrows
05. All or Nothing at All
06. Autumn Leaves
07. Only the Lonely
08. Speak Low
09. Girl Talk
10. Goodbye

Состав:
  • Bass – George Mraz (tracks: 1, 2 and 4 to 10)
  • Drums – Kenny Washington (tracks: 1, 2 and 4 to 10)
  • Liner Notes [Japanese] – Kiyoshi Koyama
  • Mastered By – Hiromichi Takiguchi
  • Piano – Hank Jones
  • Producer – Ikuyoshi Hirakawa
  • Recorded By – Jim Czak
  • Tenor Saxophone, Producer – Harry Allen
Лог создания рипа
Exact Audio Copy V1.3 from 2. September 2016
EAC extraction logfile from 29. July 2017, 21:24
Harry Allen & Hank Jones Trio / Isn't This a Lovely Day
Used drive  : Optiarc DVD RW AD-7243S   Adapter: 1  ID: 0
Read mode               : Secure
Utilize accurate stream : Yes
Defeat audio cache      : Yes
Make use of C2 pointers : No
Read offset correction                      : 48
Overread into Lead-In and Lead-Out          : No
Fill up missing offset samples with silence : Yes
Delete leading and trailing silent blocks   : No
Null samples used in CRC calculations       : Yes
Used interface                              : Native Win32 interface for Win NT & 2000
Used output format              : User Defined Encoder
Selected bitrate                : 112 kBit/s
Quality                         : High
Add ID3 tag                     : No
Command line compressor         : C:\Program Files (x86)\Exact Audio Copy\Flac\flac.exe
Additional command line options : -T "artist=%artist%" -T "title=%title%" -T "album=%albumtitle%" -T "date=%year%" -T "tracknumber=%tracknr%" -T "genre=%genre%" -5 %source%
TOC of the extracted CD
     Track |   Start  |  Length  | Start sector | End sector
    ---------------------------------------------------------
        1  |  0:00.00 |  5:50.55 |         0    |    26304
        2  |  5:50.55 |  4:47.57 |     26305    |    47886
        3  | 10:38.37 |  6:00.68 |     47887    |    74954
        4  | 16:39.30 |  5:26.00 |     74955    |    99404
        5  | 22:05.30 |  6:07.20 |     99405    |   126949
        6  | 28:12.50 |  7:11.07 |    126950    |   159281
        7  | 35:23.57 |  5:44.10 |    159282    |   185091
        8  | 41:07.67 |  6:09.40 |    185092    |   212806
        9  | 47:17.32 |  6:22.73 |    212807    |   241529
       10  | 53:40.30 |  5:50.70 |    241530    |   267849
Range status and errors
Selected range
     Filename H:\sax\Новая папка\EAC\Harry Allen & Hank Jones Trio - Isn't This a Lovely Day\Harry Allen & Hank Jones Trio - Isn't This a Lovely Day.wav
     Peak level 99.8 %
     Extraction speed 4.0 X
     Range quality 99.9 %
     Copy CRC 1A0E2599
     Copy OK
No errors occurred
End of status report
---- CUETools DB Plugin V2.1.6
[CTDB TOCID: 8IZS6fTyjup8EZA86Vge92l0Cbg-] found
Submit result: 8IZS6fTyjup8EZA86Vge92l0Cbg- has been confirmed
Track | CTDB Status
  1   | (5/5) Accurately ripped
  2   | (5/5) Accurately ripped
  3   | (5/5) Accurately ripped
  4   | (5/5) Accurately ripped
  5   | (5/5) Accurately ripped
  6   | (5/5) Accurately ripped
  7   | (5/5) Accurately ripped
  8   | (5/5) Accurately ripped
  9   | (5/5) Accurately ripped
 10   | (5/5) Accurately ripped
==== Log checksum E5A3438CDCEEC18FD5AA1156BEB40A62600683268A8F71D9BFB5B84891E301B6 ====
По всем вопросам пишите личное сообщение пользователю M0p94ok.
10:23
67
Нет комментариев. Ваш будет первым!