Поиск

2002 Rita Marcotulli - Koinè (2018) {Fone} [DST64]

2002 Rita Marcotulli - Koinè (2018) {Fone} [DST64]
Стили:
Издатель (лейбл):
Треклист:

01. G.Continuo
02. Fragment I
03. Interference
04. Afromenia
05. Fragment II
06. Il Richiamo
07. Numeri
08. Koinè
09. Just Feel
10. E Per Non Fare La Fine Di Quella Talpa
11. Fuori Dal Tempo

Состав:
  • Acoustic Guitar — Michele Ascolese (tracks: 9)
  • Cello — Alessandra Montani (tracks: 3), Giuseppe Tortora (tracks: 3), Ivo Scarponi (tracks: 3)
  • Double Bass — Anders Jormin (tracks: 1, 4, 7, 8), Luca Bulgarelli (tracks: 1, 9), Palle Danielsson (track: 6)
  • Drums — Audun Kleive (tracks: 4,7), Jon Christensen (tracks: 6), Roberto Ga o (tracks: 3)
  • Eff ects [Electronic] — Metaxu (tracks: 1,3,6 to 11), Pasquale Minieri (tracks: 4,8), Rodolfo Calandrelli (tracks: 6)
  • Flute [Pipe Flute] — Javier Giro o (tracks: 6)
  • Harmonium — Rita Marcotulli (tracks: 7)
  • Percussion, Voice — Arto Tuncboyaciyan (tracks: 4, 8)
  • Piano — Rita Marcotulli
  • Saxophone – Andy Sheppard (tracks: 1, 4, 7), Javier Giro o (tracks: 1, 11), Joachim Milder (tracks: 6)
  • Trombone – Stanley Ray Adams (tracks: 1)
  • Violin – Donatella Bonanni (tracks: 3), Marcello Sirignano (tracks: 3), Rita Salis (tracks: 3)
  • Voice – Anja Garbarek (tracks: 3), Rita Marcotulli (tracks: 9)
  • Voice [Reciting] – Gianmaria Testa (tracks: 10)
  • Voice, Guitar – Gianmaria Testa (tracks: 7)
  • Voice, Violin – Lena Willemark (tracks: 6)
Доп. инфо:

Формат записи/Источник записи: [SACD-R][OF]
Наличие водяных знаков: Нет
Год издания/переиздания диска: 2002/2018
Издатель (лейбл): Fonè Records
Продолжительность: 00:40:16
Наличие сканов в содержимом раздачи: Буклет PDF

Контейнер: ISO (*.iso)
Тип рипа: image
Разрядность: 64(2,8 MHz/1 Bit)
Формат: DST64
Количество каналов: 2.0

Источник (релизер): https://store.acousticsounds.com/d/133469/Rita_Marcotulli-Koine-Hybrid_Stereo_SACD

Лог проверки качества
foobar2000 1.4.8 / Замер динамического диапазона (DR) 1.1.1
Дата отчёта:  2019-12-20 14:47:21

--------------------------------------------------------------------------------
Анализ:   RITA MARCOTULLI / KOINE'
--------------------------------------------------------------------------------

DR         Пики         RMS           Продолжительность трека
--------------------------------------------------------------------------------
DR14      -8.32 дБ   -24.87 дБ      6:25 01-G.CONTINUO
DR13      -8.87 дБ   -28.86 дБ      1:09 02-FRAGMENT I
DR9       -8.49 дБ   -20.60 дБ      2:58 03-INTERFERENCE
DR10      -7.78 дБ   -20.81 дБ      4:26 04-AFROMENIA
DR11      -9.72 дБ   -27.49 дБ      0:35 05-FRAGMENT II
DR11      -7.96 дБ   -21.99 дБ      8:29 06-IL RICHIAMO
DR10      -6.85 дБ   -19.28 дБ      4:33 07-NUMERI
DR10      -8.00 дБ   -21.14 дБ      4:28 08-KOINE
DR9       -7.59 дБ   -19.24 дБ      2:04 09-JUST FEEL
DR17     -10.03 дБ   -30.43 дБ      0:52 10-E PER NON FARE LA FINE DI QUELLA TALPA
DR12      -9.20 дБ   -24.62 дБ      4:17 11-FUORI DAL TEMPO
--------------------------------------------------------------------------------

Количество треков: 11
Реальные значения DR: DR11

Частота:   2822400 Гц / Частота PCM: 88200 Гц
Каналов:   2
Разрядность:   1
Битрейт:   5645 кбит/с
Кодек:   DST64
================================================================================
По всем вопросам пишите личное сообщение пользователю M0p94ok.
14:42
589
Нет комментариев. Ваш будет первым!