Вы используете незарегистрированную версию компонента "Вкладки"!

Поиск

2019 Hooffoot - The Lights In The Aisle Will Guide You {Paura Di Niente PDN002} [24-44,1]

2019 Hooffoot - The Lights In The Aisle Will Guide You {Paura Di Niente PDN002} [24-44,1]
Доп. инфо:

Формат записи/Источник записи: [TR24][OF]
Наличие водяных знаков: Нет
Год издания/переиздания диска: 2019
Продолжительность: 46:09 min
Наличие сканов в содержимом раздачи: Нет
Контейнер: FLAC (*.flac)
Тип рипа: tracks
Разрядность: 24/44,1
Формат: WAV (flac.ape.wv)
Количество каналов: 2.0

Источник (релизер): bandcamp.com

Лог проверки качества
foobar2000 1.4.2 / Замер динамического диапазона (DR) 1.1.1
Дата отчёта:  2019-12-20 04:58:17

--------------------------------------------------------------------------------
Анализ:   Hooffoot / The Lights In the Aisle Will Guide You
--------------------------------------------------------------------------------

DR         Пики         RMS           Продолжительность трека
--------------------------------------------------------------------------------
DR12       0.00 дБ   -13.55 дБ     13:06 01-The lights in the aisle will guide you
DR13       0.00 дБ   -15.22 дБ      9:47 02-Pablo Octavio - 1st departure
DR11       0.00 дБ   -14.40 дБ      8:38 03-Pablo Octavio - 7th sea
DR12       0.00 дБ   -14.48 дБ     14:39 04-Krematorium (Arrival for autocrats)
--------------------------------------------------------------------------------

Количество треков: 4
Реальные значения DR: DR12

Частота:   44100 Гц
Каналов:   2
Разрядность:   24
Битрейт:   1528 кбит/с
Кодек:   FLAC
================================================================================
Any questions - support@pro-jazz.com. Есть вопросы - support@pro-jazz.com
16:31
296
Нет комментариев. Ваш будет первым!