Вы используете незарегистрированную версию компонента "Вкладки"!

Поиск

1966 Luiz Bonfa - Alta Versatilidade! (Softly.....Luiz Bonfa And His Guitar) {RevOla} [24-44,1]

1966 Luiz Bonfa - Alta Versatilidade! (Softly.....Luiz Bonfa And His Guitar) {RevOla} [24-44,1]
Стили:
Издатель (лейбл):
Доп. инфо:

Формат записи/Источник записи: [TR24][OF]
Издание: Remastered
Год издания/переиздания диска: 1966/2019
Издатель (лейбл): RevOla
Продолжительность: 00:28:00
Наличие сканов в содержимом раздачи: Нет

Контейнер: FLAC (*.flac)
Тип рипа: tracks
Разрядность: 24/44,1
Количество каналов: 2.0

Источник (релизер): Qobuz

Лог проверки качества
foobar2000 1.4.3 / Dynamic Range Meter 1.1.1
log date: 2019-12-21 08:46:23

--------------------------------------------------------------------------------
Analyzed: Luiz Bonfa / Alta Versatilidade!
--------------------------------------------------------------------------------

DR         Peak         RMS     Duration Track
--------------------------------------------------------------------------------
DR11      -2.17 dB   -15.57 dB      2:27 01-Inquietacao
DR12      -2.00 dB   -16.48 dB      2:35 02-Nossos Momentos
DR13      -1.78 dB   -18.74 dB      1:45 03-Meu Nome e Ninguem
DR14      -2.07 dB   -18.59 dB      2:09 04-Lamento No Morro
DR11      -2.59 dB   -15.91 dB      2:40 05-Pastorinhas
DR13      -1.71 dB   -17.32 dB      2:25 06-Voce Chegou Sorrindo
DR12      -2.22 dB   -17.46 dB      2:31 07-Murmurio
DR12      -2.45 dB   -15.74 dB      1:57 08-Liberdade Demais
DR12      -2.17 dB   -15.94 dB      2:18 09-Amor em Brasilia
DR11      -2.53 dB   -15.39 dB      2:31 10-Saudade da Bahia
DR11      -2.09 dB   -15.18 dB      2:04 11-Copacabana
DR11      -2.97 dB   -15.83 dB      2:44 12-Amor de Solidao
--------------------------------------------------------------------------------

Number of tracks:  12
Official DR value: DR12

Samplerate:        44100 Hz
Channels:          2
Bits per sample:   24
Bitrate:           1503 kbps
Codec:             FLAC
================================================================================
Any questions - support@pro-jazz.com. Есть вопросы - support@pro-jazz.com
23:41
367
Нет комментариев. Ваш будет первым!