Вы используете незарегистрированную версию компонента "Вкладки"!

Поиск

1957 Johnny Mathis - Warm (2019) {Columbia-Legacy} [24-96]

1957 Johnny Mathis - Warm (2019) {Columbia-Legacy} [24-96]
Издатель (лейбл):
Доп. инфо:

Формат записи/Источник записи: [TR24][OF]
Наличие водяных знаков: Нет
Год издания/переиздания диска: 1957/2018
Жанр: Vocal Jazz, Pop, Easy Listening, Oldies
Издатель (лейбл): Columbia/Legacy
Продолжительность: 42:22
Наличие сканов в содержимом раздачи: Только обложка альбома

Контейнер: FLAC (*.flac)
Тип рипа: tracks
Разрядность: 24/96
Формат: PCM
Количество каналов: 2.0

Источник: qobuz.com

Лог проверки качества
foobar2000 1.3.9 / Dynamic Range Meter 1.1.1
log date: 2019-12-22 00:02:23

--------------------------------------------------------------------------------
Analyzed: Johnny Mathis / Warm
--------------------------------------------------------------------------------

DR         Peak         RMS     Duration Track
--------------------------------------------------------------------------------
DR10      -0.12 dB   -12.17 dB      3:28 01-Warm
DR10      -0.32 dB   -12.76 dB      3:40 02-My One And Only Love
DR10      -0.33 dB   -14.11 dB      3:04 03-Baby, Baby, Baby
DR10      -0.68 dB   -13.15 dB      3:24 04-A Handful Of Stars
DR10      -0.11 dB   -12.93 dB      4:13 05-By Myself
DR11      -0.46 dB   -13.99 dB      3:32 06-I've Grown Accustomed To Her Face
DR11      -0.11 dB   -13.35 dB      4:10 07-Then I'll Be Tired Of You
DR10      -0.91 dB   -13.78 dB      4:07 08-I'm Glad There Is You
DR10      -0.94 dB   -13.84 dB      2:57 09-What'll I Do
DR10      -1.07 dB   -13.06 dB      3:21 10-The Lovely Things You Do
DR10      -0.74 dB   -13.57 dB      3:43 11-There Goes My Heart
DR10      -0.74 dB   -13.80 dB      2:43 12-While We're Young
--------------------------------------------------------------------------------

Number of tracks:  12
Official DR value: DR10

Samplerate:        96000 Hz
Channels:          2
Bits per sample:   24
Bitrate:           2958 kbps
Codec:             FLAC
================================================================================
Any questions - support@pro-jazz.com. Есть вопросы - support@pro-jazz.com
12:12
277
Нет комментариев. Ваш будет первым!