Вы используете незарегистрированную версию компонента "Вкладки"!

Поиск

1954 Ella Fitzgerald - Songs In A Mellow Mood (2019) {RevOla} [24-44,1]

1954 Ella Fitzgerald - Songs In A Mellow Mood (2019) {RevOla} [24-44,1]
Дата записи диска:
29-30 марта 1954
Издатель (лейбл):
Доп. инфо:

Формат записи/Источник записи: [TR24][OF]
Издание: Remastered
Год издания/переиздания диска: 1954/2019
Издатель (лейбл): RevOla
Продолжительность: 00:37:44
Наличие сканов в содержимом раздачи: Нет

Контейнер: FLAC (*.flac)
Тип рипа: tracks
Разрядность: 24/44,1
Количество каналов: 2.0

Источник (релизер): 7DIGITAL

Songs in a Mellow Mood - второй студийный альбом американской джазовой певицы Эллы Фицджеральд, записанный совместно с пианистом Эллисом Ларкинсом. Пластинка была выпущена 29 марта 1954 года на лейбле Decca Records.

В 1994 году вышел ремастеринг Pure Ella, включавший ре-релизы песен из альбома Songs in a Mellow Mood, а также с пластинки Ella Sings Gershwin (1950).

Лог проверки качества
foobar2000 1.4.3 / Dynamic Range Meter 1.1.1
log date: 2019-12-18 14:56:12

--------------------------------------------------------------------------------
Analyzed: Ella Fitzgerald / Songs In A Mellow Mood
--------------------------------------------------------------------------------

DR         Peak         RMS     Duration Track
--------------------------------------------------------------------------------
DR11      -2.78 dB   -16.60 dB      3:07 01, 01-I'm Glad There Is You
DR10      -2.52 dB   -14.92 dB      3:20 02, 02-What Is There To Say
DR10      -2.26 dB   -15.29 dB      3:09 03, 03-People Will Say We're In Love
DR10      -2.18 dB   -15.75 dB      3:33 04, 04-Please Be Kind
DR11      -2.99 dB   -16.74 dB      2:55 05, 05-Until The Real Thing Comes Along
DR11      -1.89 dB   -14.92 dB      3:04 06, 06-Makin' Whoopee
DR10      -2.80 dB   -16.06 dB      2:35 07, 07-Imagination
DR10      -1.98 dB   -14.24 dB      4:00 08, 08-Stardust
DR10      -2.03 dB   -15.47 dB      2:36 09, 09-My Heart Belongs To Daddy
DR11      -2.31 dB   -16.60 dB      3:04 10, 10-You Leave Me Breathless
DR10      -2.42 dB   -14.96 dB      3:47 11, 11-Baby, What Else Can I Do?
DR10      -2.59 dB   -15.44 dB      2:39 12, 12-Nice Work If You Can Get It
--------------------------------------------------------------------------------

Number of tracks:  12
Official DR value: DR10

Samplerate:        44100 Hz
Channels:          2
Bits per sample:   24
Bitrate:           1175 kbps
Codec:             FLAC
================================================================================
Any questions - support@pro-jazz.com. Есть вопросы - support@pro-jazz.com
13:53
340
Нет комментариев. Ваш будет первым!