Поиск

2002 Jason Robinson - Tandem {Accretions} [CD]

2002 Jason Robinson - Tandem {Accretions} [CD]
01 Now And Here
02 A Song For Tomorrow
03 Hogs & Swine
04 Same Old Station
05 C.T.
06 Discrete Jungle
07 Dark Matter
08 In The Tradition
09 Birdrock Dub
10 Telepatheomatic
11 Tea With George
12 Sblat
13 Black Market Higgle
14 Tbone For Two
Состав:
  • Jason Robinson: tenor & alto saxophone, flute, clarinet, live electronics
  • Anthony Davis: piano (1,5)
  • Stephanie Johnson: electronics (2,12)
  • Peter Kowald: contrabass (2,7)
  • George Lewis: trombone (3,11)
  • Marcelo Radulovich: radio, live electronics (4), guitar/electronics/field recordings (6)
  • Nathan Hubbard: percussion (8)
  • Michael Dessen: trombone (9,14)
  • Hans Fjellestad: analog synthesizers (10,13)
Лог создания рипа
Exact Audio Copy V1.0 beta 3 from 29. August 2011
EAC extraction logfile from 29. March 2014, 13:17
Jason Robinson / Tandem
Used drive  : PLEXTOR DVDR   PX-891SA   Adapter: 0  ID: 0
Read mode               : Secure
Utilize accurate stream : Yes
Defeat audio cache      : Yes
Make use of C2 pointers : No
Read offset correction                      : 6
Overread into Lead-In and Lead-Out          : No
Fill up missing offset samples with silence : Yes
Delete leading and trailing silent blocks   : No
Null samples used in CRC calculations       : Yes
Used interface                              : Native Win32 interface for Win NT & 2000
Gap handling                                : Appended to previous track
Used output format              : User Defined Encoder
Selected bitrate                : 128 kBit/s
Quality                         : High
Add ID3 tag                     : No
Command line compressor         : C:\FLAC\flac.exe
Additional command line options : -8 -V -T "ARTIST=%artist%" -T "TITLE=%title%" -T "ALBUM=%albumtitle%" -T "DATE=%year%" -T "TRACKNUMBER=%tracknr%" -T "TOTALTRACKS=%numtracks%" -T "GENRE=%genre%" -T "ALBUMARTIST=%albumartist%" -T "ALBUM ARTIST=%albumartist%" -T "COMMENT=EAC Secure Mode, Test & Copy, AccurateRip, FLAC -8" %source%
TOC of the extracted CD
     Track |   Start  |  Length  | Start sector | End sector
    ---------------------------------------------------------
        1  |  0:00.00 |  3:32.22 |         0    |    15921
        2  |  3:32.22 |  1:48.32 |     15922    |    24053
        3  |  5:20.54 |  5:19.25 |     24054    |    48003
        4  | 10:40.04 |  3:54.32 |     48004    |    65585
        5  | 14:34.36 | 19:33.22 |     65586    |   153582
        6  | 34:07.58 |  7:00.63 |    153583    |   185145
        7  | 41:08.46 |  3:38.20 |    185146    |   201515
        8  | 44:46.66 |  5:22.11 |    201516    |   225676
        9  | 50:09.02 |  2:48.15 |    225677    |   238291
       10  | 52:57.17 |  6:49.00 |    238292    |   268966
       11  | 59:46.17 |  4:30.59 |    268967    |   289275
       12  | 64:17.01 |  4:51.39 |    289276    |   311139
       13  | 69:08.40 |  5:37.32 |    311140    |   336446
       14  | 74:45.72 |  5:03.23 |    336447    |   359194
Track  1
     Filename C:\Users\Mario\Music\Torrents\Jason Robinson - Tandem (2002) [FLAC]\01 - Now And Here.wav
     Pre-gap length  0:00:02.00
     Peak level 72.7 %
     Extraction speed 2.1 X
     Track quality 100.0 %
     Test CRC 0931B3C7
     Copy CRC 0931B3C7
     Track not present in AccurateRip database
     Copy OK
Track  2
     Filename C:\Users\Mario\Music\Torrents\Jason Robinson - Tandem (2002) [FLAC]\02 - A Song For Tomorrow.wav
     Pre-gap length  0:00:01.00
     Peak level 100.0 %
     Extraction speed 1.9 X
     Track quality 100.0 %
     Test CRC 44D63107
     Copy CRC 44D63107
     Track not present in AccurateRip database
     Copy OK
Track  3
     Filename C:\Users\Mario\Music\Torrents\Jason Robinson - Tandem (2002) [FLAC]\03 - Hogs & Swine.wav
     Pre-gap length  0:00:01.00
     Peak level 72.9 %
     Extraction speed 2.3 X
     Track quality 99.9 %
     Test CRC A90B9615
     Copy CRC A90B9615
     Track not present in AccurateRip database
     Copy OK
Track  4
     Filename C:\Users\Mario\Music\Torrents\Jason Robinson - Tandem (2002) [FLAC]\04 - Same Old Station (SOS).wav
     Pre-gap length  0:00:01.00
     Peak level 77.6 %
     Extraction speed 2.6 X
     Track quality 100.0 %
     Test CRC 13255E5E
     Copy CRC 13255E5E
     Track not present in AccurateRip database
     Copy OK
Track  5
     Filename C:\Users\Mario\Music\Torrents\Jason Robinson - Tandem (2002) [FLAC]\05 - C.T..wav
     Pre-gap length  0:00:01.00
     Peak level 77.2 %
     Extraction speed 3.3 X
     Track quality 99.9 %
     Test CRC 370AE443
     Copy CRC 370AE443
     Track not present in AccurateRip database
     Copy OK
Track  6
     Filename C:\Users\Mario\Music\Torrents\Jason Robinson - Tandem (2002) [FLAC]\06 - Discrete Jungle.wav
     Pre-gap length  0:00:01.00
     Peak level 68.0 %
     Extraction speed 3.7 X
     Track quality 100.0 %
     Test CRC AA8C19B3
     Copy CRC AA8C19B3
     Track not present in AccurateRip database
     Copy OK
Track  7
     Filename C:\Users\Mario\Music\Torrents\Jason Robinson - Tandem (2002) [FLAC]\07 - Dark Matter.wav
     Pre-gap length  0:00:01.00
     Peak level 84.6 %
     Extraction speed 3.5 X
     Track quality 100.0 %
     Test CRC 97664459
     Copy CRC 97664459
     Track not present in AccurateRip database
     Copy OK
Track  8
     Filename C:\Users\Mario\Music\Torrents\Jason Robinson - Tandem (2002) [FLAC]\08 - In The Tradition.wav
     Pre-gap length  0:00:01.00
     Peak level 83.1 %
     Extraction speed 3.9 X
     Track quality 100.0 %
     Test CRC BC5E86AD
     Copy CRC BC5E86AD
     Track not present in AccurateRip database
     Copy OK
Track  9
     Filename C:\Users\Mario\Music\Torrents\Jason Robinson - Tandem (2002) [FLAC]\09 - Birdrock Dub.wav
     Pre-gap length  0:00:01.00
     Peak level 72.1 %
     Extraction speed 3.6 X
     Track quality 100.0 %
     Test CRC BC89F9B8
     Copy CRC BC89F9B8
     Track not present in AccurateRip database
     Copy OK
Track 10
     Filename C:\Users\Mario\Music\Torrents\Jason Robinson - Tandem (2002) [FLAC]\10 - Telepatheomatic.wav
     Pre-gap length  0:00:01.00
     Peak level 77.2 %
     Extraction speed 3.9 X
     Track quality 99.9 %
     Test CRC 8910A1B4
     Copy CRC 8910A1B4
     Track not present in AccurateRip database
     Copy OK
Track 11
     Filename C:\Users\Mario\Music\Torrents\Jason Robinson - Tandem (2002) [FLAC]\11 - Tea With George.wav
     Pre-gap length  0:00:01.00
     Peak level 72.1 %
     Extraction speed 4.2 X
     Track quality 100.0 %
     Test CRC A75A5A3F
     Copy CRC A75A5A3F
     Track not present in AccurateRip database
     Copy OK
Track 12
     Filename C:\Users\Mario\Music\Torrents\Jason Robinson - Tandem (2002) [FLAC]\12 - Sblat.wav
     Pre-gap length  0:00:01.00
     Peak level 100.0 %
     Extraction speed 3.9 X
     Track quality 99.9 %
     Test CRC F6C7512A
     Copy CRC F6C7512A
     Track not present in AccurateRip database
     Copy OK
Track 13
     Filename C:\Users\Mario\Music\Torrents\Jason Robinson - Tandem (2002) [FLAC]\13 - Black Market Higgler.wav
     Pre-gap length  0:00:01.00
     Peak level 71.8 %
     Extraction speed 4.5 X
     Track quality 100.0 %
     Test CRC AC34BF43
     Copy CRC AC34BF43
     Track not present in AccurateRip database
     Copy OK
Track 14
     Filename C:\Users\Mario\Music\Torrents\Jason Robinson - Tandem (2002) [FLAC]\14 - Tbone For Two.wav
     Pre-gap length  0:00:01.00
     Peak level 74.5 %
     Extraction speed 4.6 X
     Track quality 100.0 %
     Test CRC AE98D6E3
     Copy CRC AE98D6E3
     Track not present in AccurateRip database
     Copy OK
None of the tracks are present in the AccurateRip database
No errors occurred
End of status report
---- CUETools DB Plugin V2.1.3
[CTDB TOCID: Y4hgKuStCopeeupV2s0bXyQ.5zA-] disk not present in database, Submit result: Y4hgKuStCopeeupV2s0bXyQ.5zA- has been uploaded
==== Log checksum 5C01C4B3271A23845B350D9160E5DB6CC75CF1C65A23CEC1353C45E8AFDCE584 ====
Содержание индексной карты (.CUE)
REM GENRE Jazz
REM DATE 2002
REM DISCID D012B50E
REM COMMENT "ExactAudioCopy v1.0b3"
PERFORMER "Jason Robinson"
TITLE "Tandem"
FILE "01 - Now And Here.wav" WAVE
  TRACK 01 AUDIO
    TITLE "Now And Here"
    PERFORMER "Jason Robinson"
    INDEX 01 00:00:00
  TRACK 02 AUDIO
    TITLE "A Song For Tomorrow"
    PERFORMER "Jason Robinson"
    INDEX 00 03:31:22
FILE "02 - A Song For Tomorrow.wav" WAVE
    INDEX 01 00:00:00
  TRACK 03 AUDIO
    TITLE "Hogs & Swine"
    PERFORMER "Jason Robinson"
    INDEX 00 01:47:32
FILE "03 - Hogs & Swine.wav" WAVE
    INDEX 01 00:00:00
  TRACK 04 AUDIO
    TITLE "Same Old Station (SOS)"
    PERFORMER "Jason Robinson"
    INDEX 00 05:18:25
FILE "04 - Same Old Station (SOS).wav" WAVE
    INDEX 01 00:00:00
  TRACK 05 AUDIO
    TITLE "C.T."
    PERFORMER "Jason Robinson"
    INDEX 00 03:53:32
FILE "05 - C.T..wav" WAVE
    INDEX 01 00:00:00
  TRACK 06 AUDIO
    TITLE "Discrete Jungle"
    PERFORMER "Jason Robinson"
    INDEX 00 19:32:22
FILE "06 - Discrete Jungle.wav" WAVE
    INDEX 01 00:00:00
  TRACK 07 AUDIO
    TITLE "Dark Matter"
    PERFORMER "Jason Robinson"
    INDEX 00 06:59:63
FILE "07 - Dark Matter.wav" WAVE
    INDEX 01 00:00:00
  TRACK 08 AUDIO
    TITLE "In The Tradition"
    PERFORMER "Jason Robinson"
    INDEX 00 03:37:20
FILE "08 - In The Tradition.wav" WAVE
    INDEX 01 00:00:00
  TRACK 09 AUDIO
    TITLE "Birdrock Dub"
    PERFORMER "Jason Robinson"
    INDEX 00 05:21:11
FILE "09 - Birdrock Dub.wav" WAVE
    INDEX 01 00:00:00
  TRACK 10 AUDIO
    TITLE "Telepatheomatic"
    PERFORMER "Jason Robinson"
    INDEX 00 02:47:15
FILE "10 - Telepatheomatic.wav" WAVE
    INDEX 01 00:00:00
  TRACK 11 AUDIO
    TITLE "Tea With George"
    PERFORMER "Jason Robinson"
    INDEX 00 06:48:00
FILE "11 - Tea With George.wav" WAVE
    INDEX 01 00:00:00
  TRACK 12 AUDIO
    TITLE "Sblat"
    PERFORMER "Jason Robinson"
    INDEX 00 04:29:59
FILE "12 - Sblat.wav" WAVE
    INDEX 01 00:00:00
  TRACK 13 AUDIO
    TITLE "Black Market Higgler"
    PERFORMER "Jason Robinson"
    INDEX 00 04:50:39
FILE "13 - Black Market Higgler.wav" WAVE
    INDEX 01 00:00:00
  TRACK 14 AUDIO
    TITLE "Tbone For Two"
    PERFORMER "Jason Robinson"
    INDEX 00 05:36:32
FILE "14 - Tbone For Two.wav" WAVE
    INDEX 01 00:00:00
01:28
614
Нет комментариев. Ваш будет первым!