Вы используете незарегистрированную версию компонента "Вкладки"!

Поиск

(Avant-Garde Jazz, Contemporary Jazz, Prog Rock) Elton Dean (Marcio Mattos, Tony Bianco, Mark Hewins) - Sea Of Infinity - 2004, FLAC (image+.cue), lossless

Треклист:
Elton Dean / Sea Of Infinity
Жанр: Avant-Garde Jazz, Contemporary Jazz, Prog Rock
Страна-производитель диска: UK
Год издания: 2004
Издатель (лейбл): Hux Records
Номер по каталогу: HUX050
Аудиокодек: FLAC (*.flac)
Тип рипа: image+.cue
Битрейт аудио: lossless
Продолжительность: 68:28
Источник (релизер): CD
Наличие сканов в содержимом раздачи: нет
Треклист:
1. Steam Rooming 21:09
2. Boat'ing 20:24
3. Sibyling 4:24
4. Beer Can And X 22:32
 
Лог создания рипа
Exact Audio Copy V1.0 beta 2 from 29. April 2011
EAC extraction logfile from 22. April 2014, 11:48
Elton Dean / Sea Of Infinity
Used drive : Optiarc DVD RW AD-7170A Adapter: 0 ID: 0
Read mode : Secure
Utilize accurate stream : Yes
Defeat audio cache : Yes
Make use of C2 pointers : No
Read offset correction : 48
Overread into Lead-In and Lead-Out : No
Fill up missing offset samples with silence : Yes
Delete leading and trailing silent blocks : No
Null samples used in CRC calculations : Yes
Used interface : Native Win32 interface for Win NT & 2000
Used output format : User Defined Encoder
Selected bitrate : 320 kBit/s
Quality : High
Add ID3 tag : No
Command line compressor : C:\Program Files\Exact Audio Copy\Flac\flac.exe
Additional command line options : -V -8 -T "Date=%year%" -T "Genre=%genre%" %source%
TOC of the extracted CD
Track | Start | Length | Start sector | End sector
---------------------------------------------------------
1 | 0:00.00 | 21:09.01 | 0 | 95175
2 | 21:09.01 | 20:23.57 | 95176 | 186957
3 | 41:32.58 | 4:24.11 | 186958 | 206768
4 | 45:56.69 | 22:31.56 | 206769 | 308149
Range status and errors
Selected range
Filename K:\ЕАС\Elton Dean - Sea Of Infinity.wav
Peak level 100.0 %
Extraction speed 2.2 X
Range quality 100.0 %
Test CRC 36FBE3A4
Copy CRC 36FBE3A4
Copy OK
No errors occurred
AccurateRip summary
Track 1 accurately ripped (confidence 1) [27F7981C] (AR v2)
Track 2 accurately ripped (confidence 1) [579B38EB] (AR v2)
Track 3 accurately ripped (confidence 1) [295C7C58] (AR v2)
Track 4 accurately ripped (confidence 1) [0429FF6A] (AR v2)
All tracks accurately ripped
End of status report
==== Log checksum 31D712FD83E7741577864D4A60650C15256A29B6C12DA21577EB8953B7CD74AB ====
 
Содержание индексной карты (.CUE)
REM GENRE Jazz
REM DATE 2004
REM DISCID 36100C04
REM COMMENT "ExactAudioCopy v1.0b2"
PERFORMER "Elton Dean"
TITLE "Sea Of Infinity"
FILE "Elton Dean - Sea Of Infinity.flac" WAVE
TRACK 01 AUDIO
TITLE "Steam Rooming"
PERFORMER "Elton Dean"
ISRC 000000000000
INDEX 01 00:00:00
TRACK 02 AUDIO
TITLE "Boat'ing"
PERFORMER "Elton Dean"
ISRC 000000000000
INDEX 01 21:09:01
TRACK 03 AUDIO
TITLE "Sibyling"
PERFORMER "Elton Dean"
ISRC 000000000000
INDEX 01 41:32:58
TRACK 04 AUDIO
TITLE "Beer Can and X"
PERFORMER "Elton Dean"
ISRC 000000000000
INDEX 01 45:56:69
Доп. информация: 1 & 2 recorded at the Steam Room Studio, 29.05.2002
3 & 4 recorded at the Boat'ing Club, 24.02.2003
 
Состав
1 Alto Saxophone – Elton Dean, Double Bass – Marcio Mattos, Drums – Tony Bianco, Guitar [Digital Guitar] – Mark Hewins
2 Alto Saxophone [Straight Alto] – Elton Dean, Guitar [Digital Guitar] – Mark Hewins
3 Alto Saxophone [Straight Alto] – Elton Dean, Guitar [Digital Guitar] – Mark Hewins, Voice – Sibyl Madrigal
4 Alto Saxophone, Saxello – Elton Dean, Double Bass, Electronics – Marcio Mattos, Drums – Tony Bianco, Guitar [Digital Guitar] – Mark Hewins
По всем вопросам пишите личное сообщение пользователю M0p94ok.
01:27
200
Нет комментариев. Ваш будет первым!