Вы используете незарегистрированную версию компонента "Вкладки"!

Поиск

(Free Jazz, Free Improvisation) [CD] Elton Dean - QED - 2000, FLAC (image+.cue), lossless

(Free Jazz, Free Improvisation) [CD] Elton Dean - QED - 2000, FLAC (image+.cue), lossless
Треклист:
Elton Dean / QED
Жанр: Free Jazz, Free Improvisation
Носитель: CD
Страна-производитель диска: UK
Год издания: 2000
Издатель (лейбл): Blueprint (Voiceprint)
Номер по каталогу: BP339CD
Аудиокодек: FLAC (*.flac)
Тип рипа: image+.cue
Битрейт аудио: lossless
Продолжительность: 71:12
Источник (релизер): CD
Наличие сканов в содержимом раздачи: нет
Треклист:
1. Hammond X 14:33
2. Quartered 11:21
3. Sax.Com 3:13
4. Altored Strait 7:23
5. Sheepdogs 5:18
6. Deep Crease 20:32
7. New Roads 8:53
 
Лог создания рипа
Exact Audio Copy V1.0 beta 2 from 29. April 2011
EAC extraction logfile from 21. April 2014, 15:02
Elton Dean / QED
Used drive : Optiarc DVD RW AD-7170A Adapter: 0 ID: 0
Read mode : Secure
Utilize accurate stream : Yes
Defeat audio cache : Yes
Make use of C2 pointers : No
Read offset correction : 48
Overread into Lead-In and Lead-Out : No
Fill up missing offset samples with silence : Yes
Delete leading and trailing silent blocks : No
Null samples used in CRC calculations : Yes
Used interface : Native Win32 interface for Win NT & 2000
Used output format : User Defined Encoder
Selected bitrate : 320 kBit/s
Quality : High
Add ID3 tag : No
Command line compressor : C:\Program Files\Exact Audio Copy\Flac\flac.exe
Additional command line options : -V -8 -T "Date=%year%" -T "Genre=%genre%" %source%
TOC of the extracted CD
Track | Start | Length | Start sector | End sector
---------------------------------------------------------
1 | 0:00.00 | 14:32.63 | 0 | 65462
2 | 14:32.63 | 11:20.52 | 65463 | 116514
3 | 25:53.40 | 3:12.46 | 116515 | 130960
4 | 29:06.11 | 7:22.55 | 130961 | 164165
5 | 36:28.66 | 5:18.14 | 164166 | 188029
6 | 41:47.05 | 20:32.03 | 188030 | 280432
7 | 62:19.08 | 8:53.27 | 280433 | 320434
Range status and errors
Selected range
Filename K:\ЕАС\Elton Dean - QED.wav
Peak level 99.9 %
Extraction speed 2.2 X
Range quality 100.0 %
Test CRC 8C947F5A
Copy CRC 8C947F5A
Copy OK
No errors occurred
AccurateRip summary
Track 1 not present in database
Track 2 not present in database
Track 3 not present in database
Track 4 not present in database
Track 5 not present in database
Track 6 not present in database
Track 7 not present in database
None of the tracks are present in the AccurateRip database
End of status report
==== Log checksum C6DE93AE050A20B3502512DE13FC9DD305444BBE67C8CBC465B57AD03F37B9E4 ====
 
Содержание индексной карты (.CUE)
REM GENRE Jazz
REM DATE 2000
REM DISCID 6410B007
REM COMMENT "ExactAudioCopy v1.0b2"
CATALOG 0604388118328
PERFORMER "Elton Dean"
TITLE "QED"
FILE "Elton Dean - QED.flac" WAVE
TRACK 01 AUDIO
TITLE "Hammond X "
PERFORMER "Elton Dean"
ISRC GBBEJ0033901
INDEX 01 00:00:00
TRACK 02 AUDIO
TITLE "Quartered"
PERFORMER "Elton Dean"
ISRC GBBEJ0033902
INDEX 00 14:30:57
INDEX 01 14:32:63
TRACK 03 AUDIO
TITLE "Sax.Com"
PERFORMER "Elton Dean"
ISRC GBBEJ0033903
INDEX 01 25:53:40
TRACK 04 AUDIO
TITLE "Altored Strait"
PERFORMER "Elton Dean"
ISRC GBBEJ0033904
INDEX 00 29:03:38
INDEX 01 29:06:11
TRACK 05 AUDIO
TITLE "Sheepdogs"
PERFORMER "Elton Dean"
ISRC GBBEJ0033905
INDEX 01 36:28:66
TRACK 06 AUDIO
TITLE "Deep Crease"
PERFORMER "Elton Dean"
ISRC GBBEJ0033906
INDEX 00 41:46:54
INDEX 01 41:47:05
TRACK 07 AUDIO
TITLE "New Roads"
PERFORMER "Elton Dean"
ISRC GBBEJ0033907
INDEX 00 62:18:08
INDEX 01 62:19:08
Доп. информация: Tracks 1, 2, 4, 7 recorded 20.01.00 at Eddie Mander's studio in Stoke Newington, London
Tracks 3, 5, 6 recorded 17/18/21.01.00 at the Red Rose Club, as part of the 'Wireless' Festival
 
Об альбоме (сборнике)
QED features saxophonist Elton Dean in various contexts, from a duet with bassist Paul Rogers to trios, quartets, and a quintet with Jim Dvorak (trumpet), Nick Evans (trombone), Rogers, and Mark Sanders (drums). Other players include Alex Maguire (Hammond organ and piano), Tony Bianco (drums), Paul Dunmall (tenor sax), Simon Picard (tenor sax), and Robert Bellatalla (bass). The seven improvisations were recorded during one studio session and three live dates, all in January 2000. Even though collaborators and configurations change from one track to the next, this set forms a more cohesive (and interesting) whole than Moorsong, another Dean hodgepodge released around the same time on Cuneiform. These are all free improvisations with jazz roots. Highlights include the opening and closing numbers, two energy-filled trios with Maguire and Bianco on which Dean also plays electric piano (a wink to his Soft Machine days?). Bianco's Rashied Ali-inspired drumming and Maguire's funky Hammond playing turn these two tunes into exciting free-form fusion numbers. The horribly titled "Sax.com" is a nice sax quartet with Dean, Dunmall, Picard, and Jason Yarde. It makes a great contrast with "Sheepdogs," the aforementioned duet, where Dean reminds us how soulful his playing can be. The longest track is the quintet improv, "Deep Crease," the most textural of all. QED is a healthy dose of Elton Dean and a release his fans will not want to pass on.
 
Состав
1 Drums – Tony Bianco Electric Piano [Fender Rhodes Piano], Alto Saxophone [Straight Alto Sax] – Elton Dean Organ [Hammond Organ] – Alex Maguire
2 Alto Saxophone [Straight Alto Sax] – Elton Dean Bass – Roberto Bellatalla Drums – Mark Sanders Piano – Alex Maguire
3 Alto Saxophone – Jason Yarde, Alto Saxophone [Straight Alto Sax] – Elton Dean, Tenor Saxophone – Paul Dunmall, Simon Picard
4 Alto Saxophone [Straight Alto Sax] – Elton Dean, Bass – Roberto Bellatalla, Drums – Mark Sanders, Piano – Alex Maguire
5 Alto Saxophone [Straight Alto Sax] – Elton Dean, Bass – Paul Rogers
6 Alto Saxophone [Straight Alto Sax] – Elton Dean, Bass – Paul Rogers, Drums – Mark Sanders, Trombone – Nick Evans, Trumpet [Pocket Trumpet] – Jim Dvorak
7 Drums – Tony Bianco Electric Piano [Fender Rhodes Piano], Alto Saxophone [Straight Alto Sax] – Elton Dean Organ [Hammond Organ] – Alex Maguire
По всем вопросам пишите личное сообщение пользователю M0p94ok.
01:26
214
Нет комментариев. Ваш будет первым!