Вы используете незарегистрированную версию компонента "Вкладки"!

Поиск

(Avant-Garde Jazz, Free Improvisation) [CD] Fiorenzo Bodrato, Stefano Battaglia, Andrea Massaria, Massimiliano Furia - Bartleby The Scrivener - 2013, FLAC (image+.cue), lossless

(Avant-Garde Jazz, Free Improvisation) [CD] Fiorenzo Bodrato, Stefano Battaglia, Andrea Massaria, Massimiliano Furia - Bartleby The Scrivener - 2013, FLAC (image+.cue), lossless
Треклист:
Bodrato, Battaglia, Massaria, Furia / Bartleby The Scrivener
Жанр: Avant-Garde Jazz, Free Improvisation
Носитель: CD
Страна-производитель диска: Netherlands
Год издания: 2013
Издатель (лейбл): Evil Rabbit Records
Номер по каталогу: ERR 19
Аудиокодек: FLAC (*.flac)
Тип рипа: image+.cue
Битрейт аудио: lossless
Продолжительность: 75:18
Источник (релизер): CD
Наличие сканов в содержимом раздачи: нет
Треклист:
1. I Would Prefer Not To 5:07
2. Nippers 12:40
3. Motionless Young Man 7:57
4. Turkey 5:18
5. The Easiest Is The Best 5:32
6. Gingernut 6:05
7. Bartleby, The Scrivener 4:40
8. I Know Where I Am 5:13
9. The Lawyer 5:04
10. Ambition And Indigestion 10:47
11. Ah, Humanity! 6:22
 
Лог создания рипа
Exact Audio Copy V1.0 beta 2 from 29. April 2011
EAC extraction logfile from 23. April 2014, 11:33
Bodrato, Battaglia, Massaria, Furia / Bartleby The Scrivener
Used drive : Optiarc DVD RW AD-7170A Adapter: 0 ID: 0
Read mode : Secure
Utilize accurate stream : Yes
Defeat audio cache : Yes
Make use of C2 pointers : No
Read offset correction : 48
Overread into Lead-In and Lead-Out : No
Fill up missing offset samples with silence : Yes
Delete leading and trailing silent blocks : No
Null samples used in CRC calculations : Yes
Used interface : Native Win32 interface for Win NT & 2000
Used output format : User Defined Encoder
Selected bitrate : 320 kBit/s
Quality : High
Add ID3 tag : No
Command line compressor : C:\Program Files\Exact Audio Copy\Flac\flac.exe
Additional command line options : -V -8 -T "Date=%year%" -T "Genre=%genre%" %source%
TOC of the extracted CD
Track | Start | Length | Start sector | End sector
---------------------------------------------------------
1 | 0:00.00 | 5:09.38 | 0 | 23212
2 | 5:09.38 | 12:42.59 | 23213 | 80421
3 | 17:52.22 | 7:59.46 | 80422 | 116392
4 | 25:51.68 | 5:23.44 | 116393 | 140661
5 | 31:15.37 | 5:34.35 | 140662 | 165746
6 | 36:49.72 | 6:07.42 | 165747 | 193313
7 | 42:57.39 | 4:43.38 | 193314 | 214576
8 | 47:41.02 | 5:15.57 | 214577 | 238258
9 | 52:56.59 | 5:08.54 | 238259 | 261412
10 | 58:05.38 | 10:50.47 | 261413 | 310209
11 | 68:56.10 | 6:22.59 | 310210 | 338918
Range status and errors
Selected range
Filename K:\ЕАС\Bodrato, Battaglia, Massaria, Furia - Bartleby The Scrivener.wav
Peak level 96.6 %
Extraction speed 2.2 X
Range quality 99.9 %
Test CRC F57F1E4C
Copy CRC F57F1E4C
Copy OK
No errors occurred
AccurateRip summary
Track 1 not present in database
Track 2 not present in database
Track 3 not present in database
Track 4 not present in database
Track 5 not present in database
Track 6 not present in database
Track 7 not present in database
Track 8 not present in database
Track 9 not present in database
Track 10 not present in database
Track 11 not present in database
None of the tracks are present in the AccurateRip database
End of status report
==== Log checksum F9AC5B1B4841393F1A3038CAE3694F0781E5F28E46A4CA5F57F08A46C73A0B13 ====
 
Содержание индексной карты (.CUE)
REM GENRE Jazz
REM DATE 2013
REM DISCID A111A60B
REM COMMENT "ExactAudioCopy v1.0b2"
PERFORMER "Bodrato, Battaglia, Massaria, Furia"
TITLE "Bartleby The Scrivener"
FILE "Bodrato, Battaglia, Massaria, Furia - Bartleby The Scrivener.flac" WAVE
TRACK 01 AUDIO
TITLE "I Would Prefer Not Too"
PERFORMER "Bodrato, Battaglia, Massaria, Furia"
ISRC ITP241300001
FLAGS DCP
INDEX 01 00:00:00
TRACK 02 AUDIO
TITLE "Nippers"
PERFORMER "Bodrato, Battaglia, Massaria, Furia"
ISRC ITP241300002
FLAGS DCP
INDEX 00 05:07:38
INDEX 01 05:09:38
TRACK 03 AUDIO
TITLE "Motionless Young Man"
PERFORMER "Bodrato, Battaglia, Massaria, Furia"
ISRC ITP241300003
FLAGS DCP
INDEX 00 17:50:22
INDEX 01 17:52:22
TRACK 04 AUDIO
TITLE "Turkey"
PERFORMER "Bodrato, Battaglia, Massaria, Furia"
ISRC ITP241300004
FLAGS DCP
INDEX 00 25:49:68
INDEX 01 25:51:68
TRACK 05 AUDIO
TITLE "The Easiest is the Best"
PERFORMER "Bodrato, Battaglia, Massaria, Furia"
ISRC ITP241300005
FLAGS DCP
INDEX 00 31:10:37
INDEX 01 31:15:37
TRACK 06 AUDIO
TITLE "Gingernut"
PERFORMER "Bodrato, Battaglia, Massaria, Furia"
ISRC ITP241300006
FLAGS DCP
INDEX 00 36:47:72
INDEX 01 36:49:72
TRACK 07 AUDIO
TITLE "Bartleby, The Scrivener"
PERFORMER "Bodrato, Battaglia, Massaria, Furia"
ISRC ITP241300007
FLAGS DCP
INDEX 00 42:55:39
INDEX 01 42:57:39
TRACK 08 AUDIO
TITLE "I Know Where I Am"
PERFORMER "Bodrato, Battaglia, Massaria, Furia"
ISRC ITP241300008
FLAGS DCP
INDEX 00 47:38:02
INDEX 01 47:41:02
TRACK 09 AUDIO
TITLE "The Lawyer"
PERFORMER "Bodrato, Battaglia, Massaria, Furia"
ISRC ITP241300009
FLAGS DCP
INDEX 00 52:54:59
INDEX 01 52:56:59
TRACK 10 AUDIO
TITLE "Ambition and Indigestion"
PERFORMER "Bodrato, Battaglia, Massaria, Furia"
ISRC ITP241300010
FLAGS DCP
INDEX 00 58:01:38
INDEX 01 58:05:38
TRACK 11 AUDIO
TITLE "Ah, Humanity!"
PERFORMER "Bodrato, Battaglia, Massaria, Furia"
ISRC ITP241300011
FLAGS DCP
INDEX 00 68:53:10
INDEX 01 68:56:10
Доп. информация: Recorded October 19, 2012 at Arte Suono Recording Studio, Cavalicchio, Udine, Italy
 
Состав
Double Bass – Fiorenzo Bodrato
Drums – Massimiliano Furia
Guitar – Andrea Massaria
Piano – Stefano Battaglia
Any questions -> support@pro-jazz.com. По всем вопросам пишите -> support@pro-jazz.com
01:26
219
Нет комментариев. Ваш будет первым!