Вы используете незарегистрированную версию компонента "Вкладки"!

Поиск

(Free Funk, Free Jazz) [CD] Ronald Shannon Jackson (w/ Jef Lee Johnson, Stevie Salas, Jack DeSalvo, Ramon Pooser, Conrad Mathieu) - Red Warrior - 1990, FLAC (tracks+.cue), lossless

Треклист:
Ronald Shannon Jackson / Red Warrior
Жанр: Free Funk, Free Jazz
Носитель: CD
Страна-производитель диска: U.S.A.
Год издания: 1990
Издатель (лейбл): Axiom
Номер по каталогу: 314-510 149-2
Аудиокодек: FLAC (*.flac)
Тип рипа: tracks+.cue
Битрейт аудио: lossless
Продолжительность: 38:40
Источник (релизер): я
Наличие сканов в содержимом раздачи: да
Треклист:
1. Red Warrior 4:45
2. Ashes 4:42
3. Gate to Heaven 5:17
4. In Every Face 6:06
5. Elders 13:35
6. What’s Not Said 4:16
Written and arranged by Ronald Shannon Jackson.
Recorded at Sorcerer Sound by Jason Corsaro and at Krypton Studios and Platinum Island by Robert Musso.
Ronald Shannon Jackson – Drums
Jef Lee Johnson – Guitar
Stevie Salas – Guitar
Jack DeSalvo – Guitar
Ramon Pooser – Bass
Conrad Mathieu – Bass
 
Лог создания рипа
Exact Audio Copy V1.0 beta 3 from 29. August 2011
EAC extraction logfile from 21. April 2014, 12:35
Ronald Shannon Jackson / Red Warrior
Used drive : SlimtypeeNAU508 5 Adapter: 1 ID: 0
Read mode : Secure
Utilize accurate stream : Yes
Defeat audio cache : Yes
Make use of C2 pointers : No
Read offset correction : 6
Overread into Lead-In and Lead-Out : No
Fill up missing offset samples with silence : Yes
Delete leading and trailing silent blocks : No
Null samples used in CRC calculations : Yes
Used interface : Native Win32 interface for Win NT & 2000
Gap handling : Appended to previous track
Used output format : User Defined Encoder
Selected bitrate : 768 kBit/s
Quality : High
Add ID3 tag : No
Command line compressor : C:\Program Files (x86)\Exact Audio Copy\Flac\flac.exe
Additional command line options : -8 -V -T "ARTIST=%artist%" -T "TITLE=%title%" -T "ALBUM=%albumtitle%" -T "DATE=%year%" -T "TRACKNUMBER=%tracknr%" -T "TOTALTRACKS=%numtracks%" -T "GENRE=%genre%" -T "ALBUMARTIST=%albumartist%" -T "ALBUM ARTIST=%albumartist%" -T "COMMENT=EAC Secure Mode, Test & Copy, AccurateRip, FLAC -8" %source%
TOC of the extracted CD
Track | Start | Length | Start sector | End sector
---------------------------------------------------------
1 | 0:00.32 | 4:44.48 | 32 | 21379
2 | 4:45.05 | 4:41.70 | 21380 | 42524
3 | 9:27.00 | 5:16.52 | 42525 | 66276
4 | 14:43.52 | 6:05.40 | 66277 | 93691
5 | 20:49.17 | 13:35.15 | 93692 | 154831
6 | 34:24.32 | 4:15.55 | 154832 | 174011
Track 1
Filename C:\EAC rips\01 - Red Warrior.wav
Pre-gap length 0:00:02.32
Peak level 87.1 %
Extraction speed 1.0 X
Track quality 100.0 %
Test CRC 5921D44D
Copy CRC 5921D44D
Accurately ripped (confidence 4) [81B20E00] (AR v2)
Copy OK
Track 2
Filename C:\EAC rips\02 - Ashes.wav
Peak level 100.0 %
Extraction speed 1.2 X
Track quality 100.0 %
Test CRC EC707B12
Copy CRC EC707B12
Accurately ripped (confidence 4) [963A9790] (AR v2)
Copy OK
Track 3
Filename C:\EAC rips\03 - Gate to Heaven.wav
Pre-gap length 0:00:00.18
Peak level 61.2 %
Extraction speed 1.2 X
Track quality 99.9 %
Test CRC 0BEAB1A4
Copy CRC 0BEAB1A4
Accurately ripped (confidence 4) [64D3F885] (AR v2)
Copy OK
Track 4
Filename C:\EAC rips\04 - In Every Face.wav
Peak level 68.4 %
Extraction speed 1.4 X
Track quality 99.9 %
Test CRC 1259919B
Copy CRC 1259919B
Accurately ripped (confidence 4) [65669F13] (AR v2)
Copy OK
Track 5
Filename C:\EAC rips\05 - Elders.wav
Peak level 68.3 %
Extraction speed 1.8 X
Track quality 100.0 %
Test CRC CECBBB91
Copy CRC CECBBB91
Accurately ripped (confidence 4) [BFD784B7] (AR v2)
Copy OK
Track 6
Filename C:\EAC rips\06 - What's Not Said.wav
Peak level 63.9 %
Extraction speed 1.9 X
Track quality 100.0 %
Test CRC 8B69A0FC
Copy CRC 8B69A0FC
Accurately ripped (confidence 4) [5907FB37] (AR v2)
Copy OK
All tracks accurately ripped
No errors occurred
End of status report
---- CUETools DB Plugin V2.1.4
[CTDB TOCID: H8ADsdq2K8sBSgjHy8pAG7AgP0w-] disk not present in database
Submit result: H8ADsdq2K8sBSgjHy8pAG7AgP0w- has been uploaded
==== Log checksum FD5548BBDEED3F901AA87CBF1CE2A548631B94C980CE3A875F1A1B1EC0A8AFE5 ====
 
Содержание индексной карты (.CUE)
REM GENRE Jazz
REM DATE 1990
REM DISCID 53091006
REM COMMENT "ExactAudioCopy v1.0b3"
PERFORMER "Ronald Shannon Jackson"
TITLE "Red Warrior"
FILE "01 - Red Warrior.wav" WAVE
TRACK 01 AUDIO
TITLE "Red Warrior"
PERFORMER "Ronald Shannon Jackson"
PREGAP 00:00:32
INDEX 01 00:00:00
FILE "02 - Ashes.wav" WAVE
TRACK 02 AUDIO
TITLE "Ashes"
PERFORMER "Ronald Shannon Jackson"
INDEX 01 00:00:00
TRACK 03 AUDIO
TITLE "Gate to Heaven"
PERFORMER "Ronald Shannon Jackson"
INDEX 00 04:41:52
FILE "03 - Gate to Heaven.wav" WAVE
INDEX 01 00:00:00
FILE "04 - In Every Face.wav" WAVE
TRACK 04 AUDIO
TITLE "In Every Face"
PERFORMER "Ronald Shannon Jackson"
INDEX 01 00:00:00
FILE "05 - Elders.wav" WAVE
TRACK 05 AUDIO
TITLE "Elders"
PERFORMER "Ronald Shannon Jackson"
INDEX 01 00:00:00
FILE "06 - What's Not Said.wav" WAVE
TRACK 06 AUDIO
TITLE "What's Not Said"
PERFORMER "Ronald Shannon Jackson"
INDEX 01 00:00:00
Any questions - support@pro-jazz.com. Есть вопросы - support@pro-jazz.com
01:25
345
Нет комментариев. Ваш будет первым!