Вы используете незарегистрированную версию компонента "Вкладки"!

Поиск

(Free Jazz) [CD] Elton Dean, Alan Skidmore, Chris Laurence, John Marshall - El Skid - 2001, FLAC (image+.cue), lossless

(Free Jazz) [CD] Elton Dean, Alan Skidmore, Chris Laurence, John Marshall - El Skid - 2001, FLAC (image+.cue), lossless
Треклист:
Elton Dean, Alan Skidmore, Chris Laurence, John Marshall / El Skid
Жанр: Free Jazz
Носитель: CD
Страна-производитель диска: UK
Год издания: 2001
Издатель (лейбл): Voiceprint
Номер по каталогу: VP230CD
Аудиокодек: FLAC (*.flac)
Тип рипа: image+.cue
Битрейт аудио: lossless
Продолжительность: 41:38
Источник (релизер): CD
Наличие сканов в содержимом раздачи: нет
Треклист:
1. Dr. Les Mosses 8:29
2. First In The Attic 12:44
3. Thats For Cha 10:52
4. K And A Blues 9:32
 
Лог создания рипа
Exact Audio Copy V1.0 beta 2 from 29. April 2011
EAC extraction logfile from 21. April 2014, 13:48
Elton Dean, Alan Skidmore, Chris Laurence, John Marshall / El Skid
Used drive : Optiarc DVD RW AD-7170A Adapter: 0 ID: 0
Read mode : Secure
Utilize accurate stream : Yes
Defeat audio cache : Yes
Make use of C2 pointers : No
Read offset correction : 48
Overread into Lead-In and Lead-Out : No
Fill up missing offset samples with silence : Yes
Delete leading and trailing silent blocks : No
Null samples used in CRC calculations : Yes
Used interface : Native Win32 interface for Win NT & 2000
Used output format : User Defined Encoder
Selected bitrate : 320 kBit/s
Quality : High
Add ID3 tag : No
Command line compressor : C:\Program Files\Exact Audio Copy\Flac\flac.exe
Additional command line options : -V -8 -T "Date=%year%" -T "Genre=%genre%" %source%
TOC of the extracted CD
Track | Start | Length | Start sector | End sector
---------------------------------------------------------
1 | 0:00.00 | 8:29.40 | 0 | 38214
2 | 8:29.40 | 12:44.07 | 38215 | 95521
3 | 21:13.47 | 10:52.44 | 95522 | 144465
4 | 32:06.16 | 9:32.42 | 144466 | 187407
Range status and errors
Selected range
Filename K:\ЕАС\Elton Dean, Alan Skidmore, Chris Laurence, John Marshall - El Skid.wav
Peak level 100.0 %
Extraction speed 1.7 X
Range quality 99.9 %
Test CRC 11170358
Copy CRC 11170358
Copy OK
No errors occurred
AccurateRip summary
Track 1 not present in database
Track 2 not present in database
Track 3 not present in database
Track 4 not present in database
None of the tracks are present in the AccurateRip database
End of status report
==== Log checksum 6D98FD8CC0CA97D27332C9C06FF417FAD2210C876AF001C20F02D742FF63D98A ====
 
Содержание индексной карты (.CUE)
REM GENRE Jazz
REM DATE 2001
REM DISCID 2C09C204
REM COMMENT "ExactAudioCopy v1.0b2"
CATALOG 0604388306428
PERFORMER "Elton Dean, Alan Skidmore, Chris Laurence, John Marshall"
TITLE "El Skid "
FILE "Elton Dean, Alan Skidmore, Chris Laurence, John Marshall - El Skid.flac" WAVE
TRACK 01 AUDIO
TITLE "Dr. Les Mosses "
PERFORMER "Elton Dean, Alan Skidmore, Chris Laurence, John Marshall"
ISRC GBBEL0023001
INDEX 01 00:00:00
TRACK 02 AUDIO
TITLE "First In The Attic"
PERFORMER "Elton Dean, Alan Skidmore, Chris Laurence, John Marshall"
ISRC GBBEL0023002
INDEX 00 08:25:07
INDEX 01 08:29:40
TRACK 03 AUDIO
TITLE "Thats For Cha"
PERFORMER "Elton Dean, Alan Skidmore, Chris Laurence, John Marshall"
ISRC GBBEL0023003
INDEX 00 21:09:64
INDEX 01 21:13:47
TRACK 04 AUDIO
TITLE "K And A Blues"
PERFORMER "Elton Dean, Alan Skidmore, Chris Laurence, John Marshall"
ISRC GBBEL0023004
INDEX 00 32:03:00
INDEX 01 32:06:16
Доп. информация: Recorded at Riverside Studios, 25th and 26th February 1977.
 
Об альбоме (сборнике)
Elton Dean has recorded a lot in the 1970s. Many of these LPs are forgotten gems of Canterbury-style fusion jazz, and they have been resurfacing one by one during the late '90s/early 2000s, thanks to labels like Cuneiform and Voiceprint. The latter reissued El Skid, a 1977 session with saxophonist Alan Skidmore (of Kate Bush fame), acoustic bassist Chris Laurence, and once-Soft Machine alumni drummer John Marshall. This quartet feels like a shared Dean/Skidmore project (something enhanced by the album title). The saxophonists share writing credits equally and take the same room in term of solo space. "Dr. Les Mosses" kicks things into gear with a hot fusion number the likes of Soft Machine circa 4: challenging yet frantically swinging. Skidmore tears open his tenor sax in this one. "First in the Attic" and "Thats for Cha," the two numbers penned by Dean, boil things down to something quieter, leaving room for Laurence to shine. The melody and the rhythm in "Thats for Cha" have a Monk-esque quality (circa Hackensack). "K and A Blues" takes an even more conservative form, a head-solo-head number any post-Parker jazzman could have written. If the compositions are not top quality, the rhythm section works like a charm, and on the strength of the opening track alone, fans of the Canterbury scene will want to hear El Skid. Newcomers to Dean's solo career will have more fun with Just Us from the same era.
 
Состав
Alto Saxophone – Elton Dean
Double Bass – Chris Laurence
Drums – John Marshall
Tenor Saxophone, Soprano Saxophone (3) – Alan Skidmore
По всем вопросам пишите личное сообщение пользователю M0p94ok.
01:28
173
Нет комментариев. Ваш будет первым!