Поиск

2002 Chet Baker - The Definitive Chet Baker {Blue Note 5400392}

2002 Chet Baker - The Definitive Chet Baker {Blue Note 5400392}
Страна-производитель диска (релиза):
USA
Дата записи диска:
15 октября 1952 - 18 февраля 1983
Дата издания диска:
24 сентября 2002
Издатель (лейбл):
Номер по каталогу:
5400392
Носитель:
CD
Битрейт аудио:
lossless
Аудиокодек:
FLAC (*.flac)
Тип рипа:
image+.cue
Время звучания:
49:16
Наличие сканов:
  • да
Релизёр (источник):
Vasil 61
Состав:
  • Chet Baker    Composer, Flugelhorn, Trumpet, Vocals
  • Everett Barksdale    Guitar
  • Kenny Barron    Piano (Electric)
  • Gene Bertoncini    Guitar
  • Richard Bock    Producer
  • Jimmy Bond    Bass
  • Bob Brookmeyer    Trombone (Valve)
  • Larry Bunker    Drums
  • Kenny Burrell    Guitar
  • Ron Carter    Bass
  • Léon Cohen    Reeds
  • Richard Davis    Bass
  • Luchi de Jesus    Producer
  • Michael Fleming    Bass
  • Henry Freeman    Reeds
  • Russ Freeman    Composer, Piano
  • Stan Getz    Sax (Tenor)
  • Chico Hamilton    Drums
  • Wilford Holcombe    Reeds
  • Bob James    Piano
  • Hank Jones    Piano
  • Connie Kay    Drums
  • Victor Lewis    Drums
  • Peter Littman    Drums
  • Shelly Manne    Drums
  • Jim McNeely    Piano
  • Jack Montrose    Arranger
  • George Mraz    Bass
  • Gerry Mulligan    Sax (Baritone)
  • Bob Neel    Drums
  • Seldon Powell    Reeds
  • Doug Ramsey    Liner Notes
  • Charlie Rice    Drums
  • Alan Ross    Reeds
  • Cees Schrama    Producer
  • Bobby Scott    Arranger, Piano, Producer
  • Don Sebesky    Producer
  • Bud Shank    Sax (Baritone)
  • Carson Smith    Bass, Drums
  • Leroy Vinnegar    Bass
  • Tony Williams    Drums

01.    Freeway    2:46        
02.    Happy Little Sunbeam    2:43        
03.    I Get Along Without You Very Well      5:57
04.    My Funny Valentine     2:55        
05.    Little Man (You've Had a Busy Day)           4:44  
06.    That Old Feeling      2:59        
07.    Lush Life    4:53        
08.    Born to Be Blue    4:03        
09.    Think Beautiful    4:18        
10.    Easy Living      3:19        
11.    If You Could See Me Now  5:17        
12.    Oh, You Crazy Moon      3:35        
13.    Stella by Starlight      13:59    

Лог создания рипа
Exact Audio Copy V0.99 prebeta 5 from 4. May 2009

EAC extraction logfile from 15. May 2011, 17:33

Chet Baker / The Definitive Chet Baker

Used drive  : TSSTcorpCDDVDW SH-S202J   Adapter: 0  ID: 1

Read mode               : Secure
Utilize accurate stream : Yes
Defeat audio cache      : Yes
Make use of C2 pointers : No

Read offset correction                      : 6
Overread into Lead-In and Lead-Out          : No
Fill up missing offset samples with silence : Yes
Delete leading and trailing silent blocks   : No
Null samples used in CRC calculations       : Yes
Used interface                              : Native Win32 interface for Win NT & 2000

Used output format : Internal WAV Routines
Sample format      : 44.100 Hz; 16 Bit; Stereo

TOC of the extracted CD

     Track |   Start  |  Length  | Start sector | End sector
    ---------------------------------------------------------
        1  |  0:00.00 |  2:45.57 |         0    |    12431
        2  |  2:45.57 |  2:43.70 |     12432    |    24726
        3  |  5:29.52 |  2:59.25 |     24727    |    38176
        4  |  8:29.02 |  2:20.30 |     38177    |    48706
        5  | 10:49.32 |  4:44.70 |     48707    |    70076
        6  | 15:34.27 |  3:03.55 |     70077    |    83856
        7  | 18:38.07 |  4:54.60 |     83857    |   105966
        8  | 23:32.67 |  4:05.03 |    105967    |   124344
        9  | 27:37.70 |  4:19.57 |    124345    |   143826
       10  | 31:57.52 |  3:23.03 |    143827    |   159054
       11  | 35:20.55 |  4:40.17 |    159055    |   180071
       12  | 40:00.72 |  3:37.13 |    180072    |   196359
       13  | 43:38.10 |  5:38.20 |    196360    |   221729

Range status and errors

Selected range

     Filename D:\Chet Baker - The Definitive Chet Baker.wav

     Peak level 94.5 %
     Range quality 99.9 %
     Test CRC 1045EE2C
     Copy CRC 1045EE2C
     Copy OK

No errors occurred

AccurateRip summary

Track  1  accurately ripped (confidence 3)  [4885E32E]
Track  2  accurately ripped (confidence 3)  [E004C242]
Track  3  accurately ripped (confidence 3)  [94E9624B]
Track  4  accurately ripped (confidence 3)  [D1C27C3F]
Track  5  accurately ripped (confidence 3)  [4624EB57]
Track  6  accurately ripped (confidence 3)  [A509FB5A]
Track  7  accurately ripped (confidence 3)  [03D7F347]
Track  8  accurately ripped (confidence 3)  [05FF758B]
Track  9  accurately ripped (confidence 3)  [44E2EBBA]
Track 10  accurately ripped (confidence 3)  [00A397D8]
Track 11  accurately ripped (confidence 3)  [0B410599]
Track 12  accurately ripped (confidence 3)  [69CEA091]
Track 13  accurately ripped (confidence 3)  [F0F75DF6]

All tracks accurately ripped

End of status report
Содержание индексной карты (.CUE)
REM GENRE Jazz
REM DATE 2002
REM DISCID 8C0B8C0D
REM COMMENT "ExactAudioCopy v0.99pb5"
PERFORMER "Chet Baker"
TITLE "The Definitive Chet Baker"
FILE "Chet Baker - The Definitive Chet Baker.wav" WAVE
  TRACK 01 AUDIO
    TITLE "Freeway"
    PERFORMER "Chet Baker"
    INDEX 01 00:00:00
  TRACK 02 AUDIO
    TITLE "Happy Little Sunbeam"
    PERFORMER "Chet Baker"
    INDEX 00 02:43:52
    INDEX 01 02:45:57
  TRACK 03 AUDIO
    TITLE "I Get Along Without You Very Well"
    PERFORMER "Chet Baker"
    INDEX 00 05:27:42
    INDEX 01 05:29:52
  TRACK 04 AUDIO
    TITLE "My Funny Valentine"
    PERFORMER "Chet Baker"
    INDEX 00 08:27:00
    INDEX 01 08:29:02
  TRACK 05 AUDIO
    TITLE "Little Man You've Had a Busy Day"
    PERFORMER "Chet Baker"
    INDEX 00 10:47:35
    INDEX 01 10:49:32
  TRACK 06 AUDIO
    TITLE "That Old Feeling"
    PERFORMER "Chet Baker"
    INDEX 00 15:32:30
    INDEX 01 15:34:27
  TRACK 07 AUDIO
    TITLE "Lush Life"
    PERFORMER "Chet Baker"
    INDEX 00 18:35:62
    INDEX 01 18:38:07
  TRACK 08 AUDIO
    TITLE "Born to be Blue"
    PERFORMER "Chet Baker"
    INDEX 00 23:32:27
    INDEX 01 23:32:67
  TRACK 09 AUDIO
    TITLE "Think Beautiful"
    PERFORMER "Chet Baker"
    INDEX 00 27:36:27
    INDEX 01 27:37:70
  TRACK 10 AUDIO
    TITLE "Easy Living"
    PERFORMER "Chet Baker"
    INDEX 00 31:56:25
    INDEX 01 31:57:52
  TRACK 11 AUDIO
    TITLE "If You Could See Me Now"
    PERFORMER "Chet Baker"
    INDEX 00 35:18:65
    INDEX 01 35:20:55
  TRACK 12 AUDIO
    TITLE "Oh, You Crazy Moon"
    PERFORMER "Chet Baker"
    INDEX 00 39:58:32
    INDEX 01 40:00:72
  TRACK 13 AUDIO
    TITLE "Stella By Starlight"
    PERFORMER "Chet Baker"
    INDEX 00 43:36:30
    INDEX 01 43:38:10
Приватный:
Нет (DHT включён)
Размер:
257.35 Мб (269,850,692 байт) » файлов: 9
Участники:
0 раздают, 0 качают (0 участников всего)
Внешние участники:
3 раздают, 1 качают (4 участников всего) [ Обновить ]
08:52
132
RSS
Нет комментариев. Ваш будет первым!