Поиск

1986 Art Farmer/Benny Golson Jazztet - Back To The City {Contemporary/Victor VDJ-1043}

1986 Art Farmer/Benny Golson Jazztet - Back To The City {Contemporary/Victor VDJ-1043}
Стили:
Страна-производитель диска (релиза):
Japan
Дата записи диска:
21-22 февраля 1986
Дата издания диска:
1986
Издатель (лейбл):
Номер по каталогу:
VDJ-1043
Носитель:
CD
Битрейт аудио:
lossless
Аудиокодек:
FLAC (*.flac)
Тип рипа:
image+.cue
Время звучания:
47:50
Наличие сканов:
  • да
Релизёр (источник):
ikebana

Треклист:

01. Back To The City (07:55)
02. From Dream To Dream (06:48)
03. Write Soon (09:43)
04. Vas Simeon (07:33)
05. Speak Low (06:06)
06. Without Delay/Time Speaks (09:46)

Состав:
  • Art Farmer – flugelhorn
  • Benny Golson – tenor saxophone
  • Curtis Fuller – trombone
  • Mickey Tucker – piano
  • Ray Drummond – bass
  • Marvin "Smitty" Smith – drums
  • Helen Keane Producer
  • Phil Carroll Arranger
  • Stanley Crouch Liner Notes
  • Ron Saint Germain Engineer

Записано в 

  • Sweet Basil, New York, NY
Лог создания рипа
Exact Audio Copy V0.99 prebeta 5 from 4. May 2009
Отчёт EAC об извлечении, выполненном 12. апреля 2011, 14:32
The Art Farmer - Benny Golson Jazztet / Back To The City [VDJ-1043]
Дисковод: Optiarc DVD RW AD-7200A Adapter: 1 ID: 0
Режим чтения : Достоверность
Использование точного потока : Да
Отключение кэша аудио : Да
Использование указателей C2 : Нет
Коррекция смещения при чтении : 48
Способность читать области Lead-in и Lead-out : Нет
Заполнение пропущенных сэмплов тишиной : Да
Удаление блоков с тишиной в начале и конце : Нет
При вычислениях CRC использовались нулевые сэмплы : Да
Интерфейс : Встроенный Win32-интерфейс для Win NT/2000
Выходной формат : Пользовательский кодировщик
Выбранный битрейт : 128 kBit/s
Качество : Высокий
Добавление ID3-тэга : Нет
Утилита сжатия : C:\Program Files\Exact Audio Copy\Flac\flac.exe
Дополнительные параметры : -8 -V -T "artist=%a" -T "title=%t" -T "album=%g" -T "date=%y" -T "tracknumber=%n" -T "genre=%m" -T "comment=EAC
TOC извлечённого CD Трек | Старт | Длительность | Начальный сектор | Конечный сектор --------------------------------------------------------------------- 1 | 0:00.37 | 7:54.45 | 37 | 35631 2 | 7:55.07 | 6:47.48 | 35632 | 66204 3 | 14:42.55 | 9:43.37 | 66205 | 109966 4 | 24:26.17 | 7:32.50 | 109967 | 143916 5 | 31:58.67 | 6:05.45 | 143917 | 171336 6 | 38:04.37 | 9:45.43 | 171337 | 215254
Характеристики диапазона извлечения и сообщения об ошибках
Выбранный диапазон Имя файла Y:\Музыка\The Art Farmer - Benny Golson Jazztet\1986 Back To The City\The Art Farmer - Benny Golson Jazztet - Back To The City [VDJ-1043].wav Пиковый уровень 98.2 % Качество диапазона 100.0 % CRC теста E08FAC75 CRC копии E08FAC75 Копирование... OK
Ошибок не произошло
AccurateRip: сводка
Трек 1 нет в базе данных
Трек 2 нет в базе данных
Трек 3 нет в базе данных
Трек 4 нет в базе данных
Трек 5 нет в базе данных
Трек 6 нет в базе данных
Ни одного трека нет в базе AccurateRip
Конец отчёта
Содержание индексной карты (.CUE)
REM GENRE "Jazz/Hard Bop"
REM DATE 1986
REM DISCID 590B3606
REM COMMENT "ExactAudioCopy v0.99pb5"
PERFORMER "The Art Farmer/Benny Golson Jazztet"
TITLE "Back To The City [VDJ-1043]"
FILE "The Art Farmer - Benny Golson Jazztet - Back To The City [VDJ-1043].flac" WAVE TRACK 01 AUDIO TITLE "Back To The City" PERFORMER "The Art Farmer/Benny Golson Jazztet" INDEX 00 00:00:00 INDEX 01 00:00:37 TRACK 02 AUDIO TITLE "From Dream To Dream" PERFORMER "The Art Farmer/Benny Golson Jazztet" INDEX 01 07:55:07 TRACK 03 AUDIO TITLE "Write Soon" PERFORMER "The Art Farmer/Benny Golson Jazztet" INDEX 01 14:42:55 TRACK 04 AUDIO TITLE "Vas Simeon" PERFORMER "The Art Farmer/Benny Golson Jazztet" INDEX 01 24:26:17 TRACK 05 AUDIO TITLE "Speak Low" PERFORMER "The Art Farmer/Benny Golson Jazztet" INDEX 01 31:58:67 TRACK 06 AUDIO TITLE "Without Delay/Time Speaks" PERFORMER "The Art Farmer/Benny Golson Jazztet" INDEX 01 38:04:37
Приватный:
Нет (DHT включён)
Размер:
261.47 Мб (274,167,429 байт) » файлов: 7
Участники:
0 раздают, 0 качают (0 участников всего)
Внешние участники:
5 раздают, 2 качают (7 участников всего) [ Обновить ]
08:41
65
RSS
Нет комментариев. Ваш будет первым!