Поиск

1964, 1974 (1991) Stan Getz - In Warsaw {Polskie Nagrania PNCD 148}

1964, 1974 (1991) Stan Getz - In Warsaw {Polskie Nagrania PNCD 148}
Страна-производитель диска (релиза):
Poland
Дата записи диска:
31 октября 1960, 27 октября 1974
Дата издания диска:
1991
Издатель (лейбл):
Номер по каталогу:
PNCD 148
Носитель:
CD
Битрейт аудио:
lossless
Аудиокодек:
FLAC (*.flac)
Тип рипа:
tracks+.cue
Время звучания:
48:27
Наличие сканов:
  • да
Релизёр (источник):
Musicgate
Состав:

1-5:

  • Stan Getz — ts,
  • Andrzej Trzaskowski — p,
  • Roman Dylag — b,
  • Andrzej Dabrowski — dr

Recorded at the Concert Hall of the National Philharmonic, Warsaw, 31.10.1960
Recording Engineers: A. Karuzas, J. Polio


6,7: Stan Getz Quartet:

Recorded Live at the Congress Hall, Warsaw, 27.10.1974
Recording Engineers: A. Karpiriski, J. Stotwiriska

Издания:
Vinyl — Polskie Nagrania (Poland), SX 3007

 

 

1. But Not For Me 6:15 (G. Gerschwin)
2. Cherokee 5:20 (R. Noble)
3. Darn That Dream 5:50 (Van Heusen, De Lange)
4. Out Of Nowhere 7:05 (Green, Heyman)
5. The Folks That Live On The Hill 4:40 (J. Kern)
6. La Fiesta 15:30 (C. Corea)
7. Desafinado 4:01 (A. C. Jobim)

Лог создания рипа
Exact Audio Copy V0.99 prebeta 5 from 4. May 2009
EAC extraction logfile from 10. May 2011, 21:44
Stan Getz / Stan Getz in Warsaw
Used drive : HL-DT-STDVD-RAM GH22NP20 Adapter: 0 ID: 0
Read mode : Secure
Utilize accurate stream : Yes
Defeat audio cache : Yes
Make use of C2 pointers : No
Read offset correction : 102
Overread into Lead-In and Lead-Out : No
Fill up missing offset samples with silence : Yes
Delete leading and trailing silent blocks : No
Null samples used in CRC calculations : Yes
Used interface : Native Win32 interface for Win NT & 2000
Gap handling : Appended to previous track
Used output format : User Defined Encoder
Selected bitrate : 1024 kBit/s
Quality : High
Add ID3 tag : No
Command line compressor : C:\Program Files\Exact Audio Copy\Flac\flac.exe
Additional command line options : -8 -V -T "ARTIST=%a" -T "TITLE=%t" -T "ALBUM=%g" -T "DATE=%y" -T "TRACKNUMBER=%n" -T "GENRE=%m" -T "COMMENT=EAC FLAC -8" %s
TOC of the extracted CD Track | Start | Length | Start sector | End sector --------------------------------------------------------- 1 | 0:00.00 | 6:13.30 | 0 | 28004 2 | 6:13.30 | 5:21.20 | 28005 | 52099 3 | 11:34.50 | 5:49.30 | 52100 | 78304 4 | 17:24.05 | 7:04.35 | 78305 | 110139 5 | 24:28.40 | 4:42.22 | 110140 | 131311 6 | 29:10.62 | 15:18.43 | 131312 | 200204 7 | 44:29.30 | 3:58.40 | 200205 | 218094
Track 1 Filename D:\music\Musicgate's rips\Stan Getz - Stan Getz in Warsaw - 1960, 1974 (1991, Muza, PNCD 148)\01 - But Not For Me.wav Pre-gap length 0:00:02.00 Peak level 99.3 % Track quality 100.0 % Test CRC 1A0FD17D Copy CRC 1A0FD17D Track not present in AccurateRip database Copy OK
Track 2 Filename D:\music\Musicgate's rips\Stan Getz - Stan Getz in Warsaw - 1960, 1974 (1991, Muza, PNCD 148)\02 - Cherokee.wav Pre-gap length 0:00:00.55 Peak level 100.0 % Track quality 100.0 % Test CRC 276C4860 Copy CRC 276C4860 Track not present in AccurateRip database Copy OK
Track 3 Filename D:\music\Musicgate's rips\Stan Getz - Stan Getz in Warsaw - 1960, 1974 (1991, Muza, PNCD 148)\03 - Darn That Dream.wav Pre-gap length 0:00:01.23 Peak level 91.4 % Track quality 100.0 % Test CRC 31630FC4 Copy CRC 31630FC4 Track not present in AccurateRip database Copy OK
Track 4 Filename D:\music\Musicgate's rips\Stan Getz - Stan Getz in Warsaw - 1960, 1974 (1991, Muza, PNCD 148)\04 - Out Of Nowhere.wav Pre-gap length 0:00:01.48 Peak level 100.0 % Track quality 100.0 % Test CRC 170ECD27 Copy CRC 170ECD27 Track not present in AccurateRip database Copy OK
Track 5 Filename D:\music\Musicgate's rips\Stan Getz - Stan Getz in Warsaw - 1960, 1974 (1991, Muza, PNCD 148)\05 - The Folks That Live On The Hill.wav Pre-gap length 0:00:01.38 Peak level 90.7 % Track quality 100.0 % Test CRC 7E06F3F4 Copy CRC 7E06F3F4 Track not present in AccurateRip database Copy OK
Track 6 Filename D:\music\Musicgate's rips\Stan Getz - Stan Getz in Warsaw - 1960, 1974 (1991, Muza, PNCD 148)\06 - La Fiesta.wav Pre-gap length 0:00:01.57 Peak level 100.0 % Track quality 100.0 % Test CRC 27A58EAE Copy CRC 27A58EAE Track not present in AccurateRip database Copy OK
Track 7 Filename D:\music\Musicgate's rips\Stan Getz - Stan Getz in Warsaw - 1960, 1974 (1991, Muza, PNCD 148)\07 - Desafinado.wav Pre-gap length 0:00:02.35 Peak level 91.2 % Track quality 100.0 % Test CRC 24D4DC13 Copy CRC 24D4DC13 Track not present in AccurateRip database Copy OK
None of the tracks are present in the AccurateRip database
No errors occurred
End of status report
Содержание индексной карты (.CUE)
REM GENRE Jazz
REM DATE 1974
REM DISCID 5C0B5B07
REM COMMENT "ExactAudioCopy v0.99pb5"
PERFORMER "Stan Getz"
TITLE "Stan Getz in Warsaw"
FILE "01 - But Not For Me.wav" WAVE TRACK 01 AUDIO TITLE "But Not For Me" PERFORMER "Stan Getz" INDEX 01 00:00:00 TRACK 02 AUDIO TITLE "Cherokee" PERFORMER "Stan Getz" INDEX 00 06:12:50
FILE "02 - Cherokee.wav" WAVE INDEX 01 00:00:00 TRACK 03 AUDIO TITLE "Darn That Dream" PERFORMER "Stan Getz" INDEX 00 05:19:72
FILE "03 - Darn That Dream.wav" WAVE INDEX 01 00:00:00 TRACK 04 AUDIO TITLE "Out Of Nowhere" PERFORMER "Stan Getz" INDEX 00 05:47:57
FILE "04 - Out Of Nowhere.wav" WAVE INDEX 01 00:00:00 TRACK 05 AUDIO TITLE "The Folks That Live On The Hill" PERFORMER "Stan Getz" INDEX 00 07:02:72
FILE "05 - The Folks That Live On The Hill.wav" WAVE INDEX 01 00:00:00 TRACK 06 AUDIO TITLE "La Fiesta" PERFORMER "Stan Getz" INDEX 00 04:40:40
FILE "06 - La Fiesta.wav" WAVE INDEX 01 00:00:00 TRACK 07 AUDIO TITLE "Desafinado" PERFORMER "Stan Getz" INDEX 00 15:16:08
FILE "07 - Desafinado.wav" WAVE INDEX 01 00:00:00
Приватный:
Нет (DHT включён)
Размер:
302.25 Мб (316,936,623 байт) » файлов: 20
Участники:
0 раздают, 0 качают (0 участников всего)
Внешние участники:
2 раздают, 1 качают (3 участников всего) [ Обновить ]
10:20
152
RSS
Нет комментариев. Ваш будет первым!