Поиск

1995 Miles Davis - Jazz & Blues Collection 11 {Editions Atlas WIS CD 611}

1995 Miles Davis - Jazz & Blues Collection 11 {Editions Atlas WIS CD 611}
Стили:
Страна-производитель диска (релиза):
France
Дата издания диска:
1995
Издатель (лейбл):
Номер по каталогу:
WIS CD 611
Носитель:
CD
Битрейт аудио:
lossless
Аудиокодек:
FLAC (*.flac)
Тип рипа:
tracks+.cue
Время звучания:
54:03
Наличие сканов:
  • нет
Релизёр (источник):
_GARRI
Треклист:

01 - Move [4:40]
02 - Why Do I Love You [3:48]
03 - Godchild [5:59]
04 - S'il Vous Plaît [4:30]
05 - Moondreams (Version 1) [3:12]
06 - Budo (Version 1) [2:57]
07 - Moondreams (Version 2) [3:38]
08 - Budo (Version 2) [4:13]
09 - Good Bait [3:22]
10 - Focus [3:55]
11 - April In Paris [2:56]
12 - Webb's Delight [3:38]
13 - Milano [3:37]
14 - Casbah [3:38]

Состав:
  • Bass – Al McKibbon (tracks: 1 to 8), Curley Russell* (tracks: 9 to 14)
  • Bongos – Carlos Vidal (tracks: 9 to 14)
  • Cornet – Junior Collins (tracks: 1 to 8)
  • Drums – Kenny Clarke (tracks: 9 to 14), Max Roach (tracks: 1 to 8)
  • Guitar – John Collins (2) (tracks: 9 to 14)
  • Piano – John Lewis (2) (tracks: 1 to 8), Tadd Dameron (tracks: 9 to 14)
  • Saxophone [Alto] – Lee Konitz (tracks: 1 to 8), Sahib Shihab (tracks: 9 to 14)
  • Saxophone [Baritone] – Cecil Payne (tracks: 9 to 14), Gerry Mulligan (tracks: 1 to 8)
  • Saxophone [Tenor] – Benjamin Lundy (tracks: 9 to 14)
  • Trombone – Kal Winding* (tracks: 9 to 14), Mike Zwerin (tracks: 2 to 6), Ted Kelly (tracks: 1, 7, 8)
  • Trumpet – Miles Davis
  • Tuba – John Barber (tracks: 1 to 8)
  • Vocals – Kenny Hagood (tracks: 2)
Лог создания рипа
Exact Audio Copy V0.99 prebeta 4 from 23. January 2008
EAC extraction logfile from 29. September 2008, 18:16
Miles Davis / Jazz & Blues Collection
Used drive : HL-DT-STDVDRAM GH20NS10 Adapter: 3 ID: 0
Read mode : Secure
Utilize accurate stream : Yes
Defeat audio cache : Yes
Make use of C2 pointers : No
Read offset correction : 667
Overread into Lead-In and Lead-Out : No
Fill up missing offset samples with silence : Yes
Delete leading and trailing silent blocks : No
Null samples used in CRC calculations : Yes
Used interface : Native Win32 interface for Win NT & 2000
Gap handling : Appended to previous track
Used output format : User Defined Encoder
Selected bitrate : 768 kBit/s
Quality : High
Add ID3 tag : No
Command line compressor : C:\Program Files\FLAC\flac.exe
Additional command line options : -V -8 -T "artist=%a" -T "title=%t" -T "album=%g" -T "date=%y" -T "tracknumber=%n" %s
TOC of the extracted CD Track | Start | Length | Start sector | End sector --------------------------------------------------------- 1 | 0:00.32 | 4:40.18 | 32 | 21049 2 | 4:40.50 | 3:47.65 | 21050 | 38139 3 | 8:28.40 | 5:58.47 | 38140 | 65036 4 | 14:27.12 | 4:30.08 | 65037 | 85294 5 | 18:57.20 | 3:12.05 | 85295 | 99699 6 | 22:09.25 | 2:57.00 | 99700 | 112974 7 | 25:06.25 | 3:38.02 | 112975 | 129326 8 | 28:44.27 | 4:13.18 | 129327 | 148319 9 | 32:57.45 | 3:21.60 | 148320 | 163454 10 | 36:19.30 | 3:54.50 | 163455 | 181054 11 | 40:14.05 | 2:56.17 | 181055 | 194271 12 | 43:10.22 | 3:37.43 | 194272 | 210589 13 | 46:47.65 | 3:37.02 | 210590 | 226866 14 | 50:24.67 | 3:37.40 | 226867 | 243181
Track 1 Filename C:\Hi there RIAA, What's up IFPI\Miles Davis - Jazz & Blues Collection\01 - Move.wav Pre-gap length 0:00:02.42 Peak level 75.8 % Track quality 99.9 % Test CRC E0DE811F Copy CRC E0DE811F Track not present in AccurateRip database Copy OK
Track 2 Filename C:\Hi there RIAA, What's up IFPI\Miles Davis - Jazz & Blues Collection\02 - Why Do I Love You.wav Pre-gap length 0:00:01.00 Peak level 68.1 % Track quality 100.0 % Test CRC 2BCD41C3 Copy CRC 2BCD41C3 Track not present in AccurateRip database Copy OK
Track 3 Filename C:\Hi there RIAA, What's up IFPI\Miles Davis - Jazz & Blues Collection\03 - Godchild.wav Pre-gap length 0:00:01.17 Peak level 91.0 % Track quality 99.9 % Test CRC DA47ABAF Copy CRC DA47ABAF Track not present in AccurateRip database Copy OK
Track 4 Filename C:\Hi there RIAA, What's up IFPI\Miles Davis - Jazz & Blues Collection\04 - S'il Vous Plaоt.wav Peak level 87.5 % Track quality 100.0 % Test CRC FEA609A2 Copy CRC FEA609A2 Track not present in AccurateRip database Copy OK
Track 5 Filename C:\Hi there RIAA, What's up IFPI\Miles Davis - Jazz & Blues Collection\05 - Moondreams (Version 1).wav Pre-gap length 0:00:01.40 Peak level 73.7 % Track quality 100.0 % Test CRC E20F9CD3 Copy CRC E20F9CD3 Track not present in AccurateRip database Copy OK
Track 6 Filename C:\Hi there RIAA, What's up IFPI\Miles Davis - Jazz & Blues Collection\06 - Budo (Version 1).wav Pre-gap length 0:00:01.00 Peak level 89.7 % Track quality 99.9 % Test CRC 2492912C Copy CRC 2492912C Track not present in AccurateRip database Copy OK
Track 7 Filename C:\Hi there RIAA, What's up IFPI\Miles Davis - Jazz & Blues Collection\07 - Moondreams (Version 2).wav Pre-gap length 0:00:01.64 Peak level 52.6 % Track quality 100.0 % Test CRC 7BE52EE2 Copy CRC 7BE52EE2 Track not present in AccurateRip database Copy OK
Track 8 Filename C:\Hi there RIAA, What's up IFPI\Miles Davis - Jazz & Blues Collection\08 - Budo (Version 2).wav Peak level 79.6 % Track quality 100.0 % Test CRC B6FB8D6B Copy CRC B6FB8D6B Track not present in AccurateRip database Copy OK
Track 9 Filename C:\Hi there RIAA, What's up IFPI\Miles Davis - Jazz & Blues Collection\09 - Good Bait.wav Peak level 67.9 % Track quality 100.0 % Test CRC 30B45BB3 Copy CRC 30B45BB3 Track not present in AccurateRip database Copy OK
Track 10 Filename C:\Hi there RIAA, What's up IFPI\Miles Davis - Jazz & Blues Collection\10 - Focus.wav Peak level 92.0 % Track quality 100.0 % Test CRC 18715D22 Copy CRC 18715D22 Track not present in AccurateRip database Copy OK
Track 11 Filename C:\Hi there RIAA, What's up IFPI\Miles Davis - Jazz & Blues Collection\11 - April In Paris.wav Peak level 66.9 % Track quality 100.0 % Test CRC 94CC1132 Copy CRC 94CC1132 Track not present in AccurateRip database Copy OK
Track 12 Filename C:\Hi there RIAA, What's up IFPI\Miles Davis - Jazz & Blues Collection\12 - Webb's Delight.wav Pre-gap length 0:00:01.22 Peak level 87.2 % Track quality 100.0 % Test CRC 3410AE11 Copy CRC 3410AE11 Track not present in AccurateRip database Copy OK
Track 13 Filename C:\Hi there RIAA, What's up IFPI\Miles Davis - Jazz & Blues Collection\13 - Milano.wav Peak level 92.0 % Track quality 100.0 % Test CRC 0CAAAF17 Copy CRC 0CAAAF17 Track not present in AccurateRip database Copy OK
Track 14 Filename C:\Hi there RIAA, What's up IFPI\Miles Davis - Jazz & Blues Collection\14 - Casbah.wav Peak level 75.9 % Track quality 99.9 % Test CRC 508FC198 Copy CRC 508FC198 Track not present in AccurateRip database Copy OK
None of the tracks are present in the AccurateRip database
No errors occurred
End of status report
Содержание индексной карты (.CUE)
REM DATE 1995
REM DISCID C20CAA0E
REM COMMENT "ExactAudioCopy v0.99pb4"
PERFORMER "Miles Davis"
TITLE "Jazz & Blues Collection"
FILE "01 - Move.flac" WAVE TRACK 01 AUDIO TITLE "Move" PERFORMER "Miles Davis" PREGAP 00:00:32 INDEX 01 00:00:00 TRACK 02 AUDIO TITLE "Why Do I Love You" PERFORMER "Miles Davis" INDEX 00 04:39:18
FILE "02 - Why Do I Love You.flac" WAVE INDEX 01 00:00:00 TRACK 03 AUDIO TITLE "Godchild" PERFORMER "Miles Davis" INDEX 00 03:46:52
FILE "03 - Godchild.flac" WAVE INDEX 01 00:00:00
FILE "04 - S'il Vous Plaоt.flac" WAVE TRACK 04 AUDIO TITLE "S'il Vous Plaоt" PERFORMER "Miles Davis" INDEX 01 00:00:00 TRACK 05 AUDIO TITLE "Moondreams (Version 1)" PERFORMER "Miles Davis" INDEX 00 04:28:53
FILE "05 - Moondreams (Version 1).flac" WAVE INDEX 01 00:00:00 TRACK 06 AUDIO TITLE "Budo (Version 1)" PERFORMER "Miles Davis" INDEX 00 03:11:05
FILE "06 - Budo (Version 1).flac" WAVE INDEX 01 00:00:00 TRACK 07 AUDIO TITLE "Moondreams (Version 2)" PERFORMER "Miles Davis" INDEX 00 02:55:27
FILE "07 - Moondreams (Version 2).flac" WAVE INDEX 01 00:00:00
FILE "08 - Budo (Version 2).flac" WAVE TRACK 08 AUDIO TITLE "Budo (Version 2)" PERFORMER "Miles Davis" INDEX 01 00:00:00
FILE "09 - Good Bait.flac" WAVE TRACK 09 AUDIO TITLE "Good Bait" PERFORMER "Miles Davis" INDEX 01 00:00:00
FILE "10 - Focus.flac" WAVE TRACK 10 AUDIO TITLE "Focus" PERFORMER "Miles Davis" INDEX 01 00:00:00
FILE "11 - April In Paris.flac" WAVE TRACK 11 AUDIO TITLE "April In Paris" PERFORMER "Miles Davis" INDEX 01 00:00:00 TRACK 12 AUDIO TITLE "Webb's Delight" PERFORMER "Miles Davis" INDEX 00 02:55:00
FILE "12 - Webb's Delight.flac" WAVE INDEX 01 00:00:00
FILE "13 - Milano.flac" WAVE TRACK 13 AUDIO TITLE "Milano" PERFORMER "Miles Davis" INDEX 01 00:00:00
FILE "14 - Casbah.flac" WAVE TRACK 14 AUDIO TITLE "Casbah" PERFORMER "Miles Davis" INDEX 01 00:00:00
Приватный:
Нет (DHT включён)
Размер:
186.69 Мб (195,761,454 байт) » файлов: 20
Участники:
0 раздают, 0 качают (0 участников всего)
Внешние участники:
1 раздают, 0 качают (1 участников всего) [ Обновить ]
10:54
51
RSS
Нет комментариев. Ваш будет первым!