Поиск

1952 (2011) Stan Getz Quintets - The Clef & Norgran Studio Albums (3CD) {Verve / Hip-O Select B0014657-02}

1952 (2011) Stan Getz Quintets - The Clef & Norgran Studio Albums (3CD) {Verve / Hip-O Select B0014657-02}
Страна-производитель диска (релиза):
USA
Дата записи диска:
12 декабря 1952
Дата издания диска:
8 февраля 2011
Издатель (лейбл):
Номер по каталогу:
B0014657-02
Носитель:
CD
Битрейт аудио:
lossless
Аудиокодек:
FLAC (*.flac)
Тип рипа:
tracks+.cue
Время звучания:
68:56 + 74:18 + 79:16
Наличие сканов:
  • да
Релизёр (источник):
valechek82
Состав:
  • Stan Getz  — tenor sax
  • Bob Brookmeyer  — valve trombone
  • Tony Fruscella - trumpet
  • Duke Jordan, John Williams & Jimmy Rowles - piano
  • Jimmy Raney - guitar
  • Teddy Kotick, Bill Crow, Bob Whitlock & Bill ANthony - bass
  • Max Roach, Al Levitt & Frank Isola - drums

Disc 1
01. Stella By Starlight
02. Time On My Hands
03. 'Tis Autumn
04. The Way You Look Tonight
05. Lover Come Back To Me
06. Body And Soul
07. Stars Fell On Alabama
08. You Turned The Tables On Me
09. Thanks For The Memory
10. Hymn Of The Orient
11. These Foolish Things (Remind Me Of You)
12. How Deep Is The Ocean?
13. Have You Met Miss Jones?
14. Erudition
15. Cool Mix
16. Rustic Hop
17. Love And The Weather
18. Spring Is Here
19. Crazy Rhythm
Disc 2
01. Willow Weep For Me
02. The Nearness Of You
03. Pot Luck
04. Minor Blues
05. Fascinatin' Rhythm
06. I Don't Know What Time It Was
07. Tangerine
08. Pot Luck (Single Version)
09. It Don't Mean A Thing (Alternate Version)
10. I Hadn't Anyone 'Til You
11. Down By The Sycamore Tree
12. With The Wind And The Rain In Your Hair
13. Nobody Else But Me
14. I Hadn't Anyone 'Til You (Alternate Take)
15. Nobody Else But Me (Alternate Take)
Disc 3
01. It Don't Mean A Thing
02. The Varsity Drag
03. Give Me The Simple Life
04. Oh, Jane Snavely
05. I'll Remember April
06. We'll Be Together Again (EP Version)
07. We'll Be Together Again (LP Version)
08. Feather Merchant
09. Flamingo
10. Blue Bells
11. Round Up Time

Лог создания рипа
CD1
Exact Audio Copy V1.0 beta 1 from 15. November 2010
EAC extraction logfile from 9. March 2011, 15:10
Stan Getz / Stan Getz Quintets (Disc 1)
Used drive : _NEC DVD_RW ND-3520A Adapter: 1 ID: 0
Read mode : Secure
Utilize accurate stream : Yes
Defeat audio cache : Yes
Make use of C2 pointers : No
Read offset correction : 48
Overread into Lead-In and Lead-Out : No
Fill up missing offset samples with silence : Yes
Delete leading and trailing silent blocks : No
Null samples used in CRC calculations : Yes
Used interface : Installed external ASPI interface
Gap handling : Appended to previous track
Used output format : User Defined Encoder
Selected bitrate : 1024 kBit/s
Quality : High
Add ID3 tag : No
Command line compressor : C:\Program Files\Exact Audio Copy\FLAC\FLAC.EXE
Additional command line options : -8 -V -T "ARTIST=%a" -T "TITLE=%t" -T "ALBUM=%g" -T "DATE=%y" -T "TRACKNUMBER=%n" -T "TOTALTRACKS=%x" -T "GENRE=%m" -T "ALBUMARTIST=%v" -T "ALBUM ARTIST=%v" -T "COMMENT=EAC Secure Mode, Test & Copy, AccurateRip, FLAC -8" %s
TOC of the extracted CD Track | Start | Length | Start sector | End sector --------------------------------------------------------- 1 | 0:00.00 | 2:44.09 | 0 | 12308 2 | 2:44.09 | 2:58.20 | 12309 | 25678 3 | 5:42.29 | 3:14.05 | 25679 | 40233 4 | 8:56.34 | 3:03.19 | 40234 | 53977 5 | 11:59.53 | 2:57.34 | 53978 | 67286 6 | 14:57.12 | 3:17.09 | 67287 | 82070 7 | 18:14.21 | 3:23.24 | 82071 | 97319 8 | 21:37.45 | 2:58.69 | 97320 | 110738 9 | 24:36.39 | 3:18.54 | 110739 | 125642 10 | 27:55.18 | 2:55.13 | 125643 | 138780 11 | 30:50.31 | 3:21.68 | 138781 | 153923 12 | 34:12.24 | 2:51.01 | 153924 | 166749 13 | 37:03.25 | 3:16.09 | 166750 | 181458 14 | 40:19.34 | 3:11.36 | 181459 | 195819 15 | 43:30.70 | 3:05.53 | 195820 | 209747 16 | 46:36.48 | 3:48.13 | 209748 | 226860 17 | 50:24.61 | 6:32.52 | 226861 | 256312 18 | 56:57.38 | 6:09.23 | 256313 | 284010 19 | 63:06.61 | 5:51.06 | 284011 | 310341
Track 1 Filename C:\Documents and Settings\All Users\Documents\Uploads\Ex\Stan Getz - Quintets-The Clef & Norgram Studio Albums (1952-1955) [FLAC] {HIP-O Select}\Disc 1\01 - Stella By Starlight.wav Pre-gap length 0:00:02.00 Peak level 99.9 % Extraction speed 3.5 X Track quality 100.0 % Test CRC F0989716 Copy CRC F0989716 Track not present in AccurateRip database Copy OK
Track 2 Filename C:\Documents and Settings\All Users\Documents\Uploads\Ex\Stan Getz - Quintets-The Clef & Norgram Studio Albums (1952-1955) [FLAC] {HIP-O Select}\Disc 1\02 - Time On My Hands.wav Pre-gap length 0:00:02.43 Peak level 99.9 % Extraction speed 3.8 X Track quality 100.0 % Test CRC 071EC9F6 Copy CRC 071EC9F6 Track not present in AccurateRip database Copy OK
Track 3 Filename C:\Documents and Settings\All Users\Documents\Uploads\Ex\Stan Getz - Quintets-The Clef & Norgram Studio Albums (1952-1955) [FLAC] {HIP-O Select}\Disc 1\03 - 'Tis Autumn.wav Pre-gap length 0:00:02.12 Peak level 100.0 % Extraction speed 4.2 X Track quality 100.0 % Test CRC F82BD09B Copy CRC F82BD09B Track not present in AccurateRip database Copy OK
Track 4 Filename C:\Documents and Settings\All Users\Documents\Uploads\Ex\Stan Getz - Quintets-The Clef & Norgram Studio Albums (1952-1955) [FLAC] {HIP-O Select}\Disc 1\04 - The Way You Look Tonight.wav Pre-gap length 0:00:01.42 Peak level 93.3 % Extraction speed 4.1 X Track quality 100.0 % Test CRC D801C735 Copy CRC D801C735 Track not present in AccurateRip database Copy OK
Track 5 Filename C:\Documents and Settings\All Users\Documents\Uploads\Ex\Stan Getz - Quintets-The Clef & Norgram Studio Albums (1952-1955) [FLAC] {HIP-O Select}\Disc 1\05 - Lover Come Back To Me.wav Pre-gap length 0:00:02.33 Peak level 94.4 % Extraction speed 4.1 X Track quality 100.0 % Test CRC 1CAF2D53 Copy CRC 1CAF2D53 Track not present in AccurateRip database Copy OK
Track 6 Filename C:\Documents and Settings\All Users\Documents\Uploads\Ex\Stan Getz - Quintets-The Clef & Norgram Studio Albums (1952-1955) [FLAC] {HIP-O Select}\Disc 1\06 - Body And Soul.wav Pre-gap length 0:00:02.34 Peak level 95.9 % Extraction speed 4.2 X Track quality 100.0 % Test CRC A9BCB913 Copy CRC A9BCB913 Track not present in AccurateRip database Copy OK
Track 7 Filename C:\Documents and Settings\All Users\Documents\Uploads\Ex\Stan Getz - Quintets-The Clef & Norgram Studio Albums (1952-1955) [FLAC] {HIP-O Select}\Disc 1\07 - Stars Fell On Alabama.wav Pre-gap length 0:00:02.51 Peak level 100.0 % Extraction speed 4.2 X Track quality 100.0 % Test CRC 4E4E3AA6 Copy CRC 4E4E3AA6 Track not present in AccurateRip database Copy OK
Track 8 Filename C:\Documents and Settings\All Users\Documents\Uploads\Ex\Stan Getz - Quintets-The Clef & Norgram Studio Albums (1952-1955) [FLAC] {HIP-O Select}\Disc 1\08 - You Turn the Tables On Me.wav Pre-gap length 0:00:02.23 Peak level 100.0 % Extraction speed 4.7 X Track quality 100.0 % Test CRC F2D7A633 Copy CRC F2D7A633 Track not present in AccurateRip database Copy OK
Track 9 Filename C:\Documents and Settings\All Users\Documents\Uploads\Ex\Stan Getz - Quintets-The Clef & Norgram Studio Albums (1952-1955) [FLAC] {HIP-O Select}\Disc 1\09 - Thanks For The Memory.wav Pre-gap length 0:00:03.30 Peak level 100.0 % Extraction speed 5.2 X Track quality 100.0 % Test CRC 16051155 Copy CRC 16051155 Track not present in AccurateRip database Copy OK
Track 10 Filename C:\Documents and Settings\All Users\Documents\Uploads\Ex\Stan Getz - Quintets-The Clef & Norgram Studio Albums (1952-1955) [FLAC] {HIP-O Select}\Disc 1\10 - Hymn Of The Orient.wav Pre-gap length 0:00:01.44 Peak level 98.1 % Extraction speed 4.9 X Track quality 100.0 % Test CRC 3F617EA6 Copy CRC 3F617EA6 Track not present in AccurateRip database Copy OK
Track 11 Filename C:\Documents and Settings\All Users\Documents\Uploads\Ex\Stan Getz - Quintets-The Clef & Norgram Studio Albums (1952-1955) [FLAC] {HIP-O Select}\Disc 1\11 - These Foolish things (Remind Me Of You).wav Pre-gap length 0:00:02.36 Peak level 96.7 % Extraction speed 4.0 X Track quality 99.9 % Test CRC 49DEBB8E Copy CRC 49DEBB8E Track not present in AccurateRip database Copy OK
Track 12 Filename C:\Documents and Settings\All Users\Documents\Uploads\Ex\Stan Getz - Quintets-The Clef & Norgram Studio Albums (1952-1955) [FLAC] {HIP-O Select}\Disc 1\12 - How Deep Is The Ocean.wav Pre-gap length 0:00:01.52 Peak level 100.0 % Extraction speed 4.1 X Track quality 99.9 % Test CRC 7F645916 Copy CRC 7F645916 Track not present in AccurateRip database Copy OK
Track 13 Filename C:\Documents and Settings\All Users\Documents\Uploads\Ex\Stan Getz - Quintets-The Clef & Norgram Studio Albums (1952-1955) [FLAC] {HIP-O Select}\Disc 1\13 - Have You Met Miss Jones.wav Pre-gap length 0:00:02.01 Peak level 93.0 % Extraction speed 4.4 X Track quality 100.0 % Test CRC BEA6461B Copy CRC BEA6461B Track not present in AccurateRip database Copy OK
Track 14 Filename C:\Documents and Settings\All Users\Documents\Uploads\Ex\Stan Getz - Quintets-The Clef & Norgram Studio Albums (1952-1955) [FLAC] {HIP-O Select}\Disc 1\14 - Erudition.wav Pre-gap length 0:00:02.34 Peak level 85.7 % Extraction speed 5.6 X Track quality 100.0 % Test CRC C9859DC1 Copy CRC C9859DC1 Track not present in AccurateRip database Copy OK
Track 15 Filename C:\Documents and Settings\All Users\Documents\Uploads\Ex\Stan Getz - Quintets-The Clef & Norgram Studio Albums (1952-1955) [FLAC] {HIP-O Select}\Disc 1\15 - Cool Mix.wav Pre-gap length 0:00:02.23 Peak level 82.2 % Extraction speed 6.0 X Track quality 100.0 % Test CRC 5F3A6FCB Copy CRC 5F3A6FCB Track not present in AccurateRip database Copy OK
Track 16 Filename C:\Documents and Settings\All Users\Documents\Uploads\Ex\Stan Getz - Quintets-The Clef & Norgram Studio Albums (1952-1955) [FLAC] {HIP-O Select}\Disc 1\16 - Rustic Hop.wav Pre-gap length 0:00:02.04 Peak level 86.0 % Extraction speed 5.9 X Track quality 100.0 % Test CRC 4E22A0DB Copy CRC 4E22A0DB Track not present in AccurateRip database Copy OK
Track 17 Filename C:\Documents and Settings\All Users\Documents\Uploads\Ex\Stan Getz - Quintets-The Clef & Norgram Studio Albums (1952-1955) [FLAC] {HIP-O Select}\Disc 1\17 - Love And The Weather.wav Pre-gap length 0:00:03.10 Peak level 97.9 % Extraction speed 4.6 X Track quality 99.9 % Test CRC 6A7939CF Copy CRC 6A7939CF Track not present in AccurateRip database Copy OK
Track 18 Filename C:\Documents and Settings\All Users\Documents\Uploads\Ex\Stan Getz - Quintets-The Clef & Norgram Studio Albums (1952-1955) [FLAC] {HIP-O Select}\Disc 1\18 - Spring Is Here.wav Pre-gap length 0:00:02.74 Peak level 100.0 % Extraction speed 7.3 X Track quality 100.0 % Test CRC C0BAF320 Copy CRC C0BAF320 Track not present in AccurateRip database Copy OK
Track 19 Filename C:\Documents and Settings\All Users\Documents\Uploads\Ex\Stan Getz - Quintets-The Clef & Norgram Studio Albums (1952-1955) [FLAC] {HIP-O Select}\Disc 1\19 - Crazy Rhythm.wav Pre-gap length 0:00:02.25 Peak level 100.0 % Extraction speed 7.7 X Track quality 100.0 % Test CRC 2F353442 Copy CRC 2F353442 Track not present in AccurateRip database Copy OK
None of the tracks are present in the AccurateRip database
No errors occurred
End of status report
==== Log checksum 58F2CD3B89CCC08CF8E6477E08B2871F18FFC9541DED997E2EE4B16D7BB4B626 ====
[свернуть]
CD2
Exact Audio Copy V1.0 beta 1 from 15. November 2010
EAC extraction logfile from 9. March 2011, 16:53
Stan Getz / Stan Getz Quintets (Disc 2)
Used drive : _NEC DVD_RW ND-3520A Adapter: 1 ID: 0
Read mode : Secure
Utilize accurate stream : Yes
Defeat audio cache : Yes
Make use of C2 pointers : No
Read offset correction : 48
Overread into Lead-In and Lead-Out : No
Fill up missing offset samples with silence : Yes
Delete leading and trailing silent blocks : No
Null samples used in CRC calculations : Yes
Used interface : Installed external ASPI interface
Gap handling : Appended to previous track
Used output format : User Defined Encoder
Selected bitrate : 1024 kBit/s
Quality : High
Add ID3 tag : No
Command line compressor : C:\Program Files\Exact Audio Copy\FLAC\FLAC.EXE
Additional command line options : -8 -V -T "ARTIST=%a" -T "TITLE=%t" -T "ALBUM=%g" -T "DATE=%y" -T "TRACKNUMBER=%n" -T "TOTALTRACKS=%x" -T "GENRE=%m" -T "ALBUMARTIST=%v" -T "ALBUM ARTIST=%v" -T "COMMENT=EAC Secure Mode, Test & Copy, AccurateRip, FLAC -8" %s
TOC of the extracted CD Track | Start | Length | Start sector | End sector --------------------------------------------------------- 1 | 0:00.00 | 5:21.30 | 0 | 24104 2 | 5:21.30 | 3:44.14 | 24105 | 40918 3 | 9:05.44 | 3:58.49 | 40919 | 58817 4 | 13:04.18 | 7:04.00 | 58818 | 90617 5 | 20:08.18 | 8:02.64 | 90618 | 126831 6 | 28:11.07 | 7:38.18 | 126832 | 161199 7 | 35:49.25 | 7:05.22 | 161200 | 193096 8 | 42:54.47 | 3:19.56 | 193097 | 208077 9 | 46:14.28 | 6:46.29 | 208078 | 238556 10 | 53:00.57 | 2:53.48 | 238557 | 251579 11 | 55:54.30 | 3:03.49 | 251580 | 265353 12 | 58:58.04 | 3:50.55 | 265354 | 282658 13 | 62:48.59 | 3:35.20 | 282659 | 298803 14 | 66:24.04 | 3:09.61 | 298804 | 313039 15 | 69:33.65 | 4:44.33 | 313040 | 334372
Track 1 Filename C:\Documents and Settings\All Users\Documents\Uploads\Ex\Stan Getz - Quintets-The Clef & Norgram Studio Albums (1952-1955) [FLAC] {HIP-O Select}\Disc 2\01 - Willow Weep For Me.wav Pre-gap length 0:00:02.00 Peak level 100.0 % Extraction speed 3.5 X Track quality 99.9 % Test CRC 05479ED8 Copy CRC 05479ED8 Track not present in AccurateRip database Copy OK
Track 2 Filename C:\Documents and Settings\All Users\Documents\Uploads\Ex\Stan Getz - Quintets-The Clef & Norgram Studio Albums (1952-1955) [FLAC] {HIP-O Select}\Disc 2\02 - The Nearness Of You.wav Pre-gap length 0:00:03.25 Peak level 100.0 % Extraction speed 4.4 X Track quality 100.0 % Test CRC 9C25F07B Copy CRC 9C25F07B Track not present in AccurateRip database Copy OK
Track 3 Filename C:\Documents and Settings\All Users\Documents\Uploads\Ex\Stan Getz - Quintets-The Clef & Norgram Studio Albums (1952-1955) [FLAC] {HIP-O Select}\Disc 2\03 - Pot Luck.wav Pre-gap length 0:00:03.41 Peak level 100.0 % Extraction speed 4.8 X Track quality 100.0 % Test CRC 8B5BC97C Copy CRC 8B5BC97C Track not present in AccurateRip database Copy OK
Track 4 Filename C:\Documents and Settings\All Users\Documents\Uploads\Ex\Stan Getz - Quintets-The Clef & Norgram Studio Albums (1952-1955) [FLAC] {HIP-O Select}\Disc 2\04 - Minor Blues.wav Pre-gap length 0:00:04.29 Peak level 96.3 % Extraction speed 5.5 X Track quality 100.0 % Test CRC F93FD5B4 Copy CRC F93FD5B4 Track not present in AccurateRip database Copy OK
Track 5 Filename C:\Documents and Settings\All Users\Documents\Uploads\Ex\Stan Getz - Quintets-The Clef & Norgram Studio Albums (1952-1955) [FLAC] {HIP-O Select}\Disc 2\05 - Fascinating Rhythm.wav Pre-gap length 0:00:02.67 Peak level 100.0 % Extraction speed 6.2 X Track quality 100.0 % Test CRC C024B3F3 Copy CRC C024B3F3 Track not present in AccurateRip database Copy OK
Track 6 Filename C:\Documents and Settings\All Users\Documents\Uploads\Ex\Stan Getz - Quintets-The Clef & Norgram Studio Albums (1952-1955) [FLAC] {HIP-O Select}\Disc 2\06 - I don't Know What Time It was.wav Pre-gap length 0:00:02.39 Peak level 96.5 % Extraction speed 5.9 X Track quality 99.9 % Test CRC BA36E2D0 Copy CRC BA36E2D0 Track not present in AccurateRip database Copy OK
Track 7 Filename C:\Documents and Settings\All Users\Documents\Uploads\Ex\Stan Getz - Quintets-The Clef & Norgram Studio Albums (1952-1955) [FLAC] {HIP-O Select}\Disc 2\07 - Tangerine.wav Pre-gap length 0:00:02.14 Peak level 97.1 % Extraction speed 7.1 X Track quality 100.0 % Test CRC C92F9217 Copy CRC C92F9217 Track not present in AccurateRip database Copy OK
Track 8 Filename C:\Documents and Settings\All Users\Documents\Uploads\Ex\Stan Getz - Quintets-The Clef & Norgram Studio Albums (1952-1955) [FLAC] {HIP-O Select}\Disc 2\08 - Pot Luck single version.wav Pre-gap length 0:00:03.47 Peak level 100.0 % Extraction speed 6.6 X Track quality 100.0 % Test CRC A0433056 Copy CRC A0433056 Track not present in AccurateRip database Copy OK
Track 9 Filename C:\Documents and Settings\All Users\Documents\Uploads\Ex\Stan Getz - Quintets-The Clef & Norgram Studio Albums (1952-1955) [FLAC] {HIP-O Select}\Disc 2\09 - It Don't Mean A Thing alternate version.wav Pre-gap length 0:00:03.67 Peak level 99.5 % Extraction speed 6.0 X Track quality 99.9 % Test CRC 1B1B8AF9 Copy CRC 1B1B8AF9 Track not present in AccurateRip database Copy OK
Track 10 Filename C:\Documents and Settings\All Users\Documents\Uploads\Ex\Stan Getz - Quintets-The Clef & Norgram Studio Albums (1952-1955) [FLAC] {HIP-O Select}\Disc 2\10 - I Hadn't Anyone 'Til You.wav Pre-gap length 0:00:05.17 Peak level 100.0 % Extraction speed 6.3 X Track quality 100.0 % Test CRC 15D824BB Copy CRC 15D824BB Track not present in AccurateRip database Copy OK
Track 11 Filename C:\Documents and Settings\All Users\Documents\Uploads\Ex\Stan Getz - Quintets-The Clef & Norgram Studio Albums (1952-1955) [FLAC] {HIP-O Select}\Disc 2\11 - Down By the Sycamore Tree.wav Pre-gap length 0:00:03.02 Peak level 100.0 % Extraction speed 6.6 X Track quality 100.0 % Test CRC 06D6F482 Copy CRC 06D6F482 Track not present in AccurateRip database Copy OK
Track 12 Filename C:\Documents and Settings\All Users\Documents\Uploads\Ex\Stan Getz - Quintets-The Clef & Norgram Studio Albums (1952-1955) [FLAC] {HIP-O Select}\Disc 2\12 - With The Wind And The Rain In Your Hair.wav Pre-gap length 0:00:02.45 Peak level 96.0 % Extraction speed 6.7 X Track quality 100.0 % Test CRC F5E16248 Copy CRC F5E16248 Track not present in AccurateRip database Copy OK
Track 13 Filename C:\Documents and Settings\All Users\Documents\Uploads\Ex\Stan Getz - Quintets-The Clef & Norgram Studio Albums (1952-1955) [FLAC] {HIP-O Select}\Disc 2\13 - Nobody else But Me.wav Pre-gap length 0:00:03.56 Peak level 92.2 % Extraction speed 7.1 X Track quality 100.0 % Test CRC 3103F28B Copy CRC 3103F28B Track not present in AccurateRip database Copy OK
Track 14 Filename C:\Documents and Settings\All Users\Documents\Uploads\Ex\Stan Getz - Quintets-The Clef & Norgram Studio Albums (1952-1955) [FLAC] {HIP-O Select}\Disc 2\14 - It hadn't Anyone 'Til You alternate take.wav Pre-gap length 0:00:02.50 Peak level 100.0 % Extraction speed 7.2 X Track quality 100.0 % Test CRC 5B0D2E94 Copy CRC 5B0D2E94 Track not present in AccurateRip database Copy OK
Track 15 Filename C:\Documents and Settings\All Users\Documents\Uploads\Ex\Stan Getz - Quintets-The Clef & Norgram Studio Albums (1952-1955) [FLAC] {HIP-O Select}\Disc 2\15 - Nobody Else But Me alternate take.wav Pre-gap length 0:00:02.49 Peak level 99.9 % Extraction speed 8.0 X Track quality 100.0 % Test CRC BA86BDC7 Copy CRC BA86BDC7 Track not present in AccurateRip database Copy OK
None of the tracks are present in the AccurateRip database
No errors occurred
End of status report
==== Log checksum 391313C94D5C95C540680C8773CBB15636E5E6379E9FD7C5B1BFC0F92636E4BA ====
[свернуть]
CD3
Exact Audio Copy V1.0 beta 1 from 15. November 2010
EAC extraction logfile from 9. March 2011, 17:28
Stan Getz / Stan Getz Quintets (Disc 3)
Used drive : _NEC DVD_RW ND-3520A Adapter: 1 ID: 0
Read mode : Secure
Utilize accurate stream : Yes
Defeat audio cache : Yes
Make use of C2 pointers : No
Read offset correction : 48
Overread into Lead-In and Lead-Out : No
Fill up missing offset samples with silence : Yes
Delete leading and trailing silent blocks : No
Null samples used in CRC calculations : Yes
Used interface : Installed external ASPI interface
Gap handling : Appended to previous track
Used output format : User Defined Encoder
Selected bitrate : 1024 kBit/s
Quality : High
Add ID3 tag : No
Command line compressor : C:\Program Files\Exact Audio Copy\FLAC\FLAC.EXE
Additional command line options : -8 -V -T "ARTIST=%a" -T "TITLE=%t" -T "ALBUM=%g" -T "DATE=%y" -T "TRACKNUMBER=%n" -T "TOTALTRACKS=%x" -T "GENRE=%m" -T "ALBUMARTIST=%v" -T "ALBUM ARTIST=%v" -T "COMMENT=EAC Secure Mode, Test & Copy, AccurateRip, FLAC -8" %s
TOC of the extracted CD Track | Start | Length | Start sector | End sector --------------------------------------------------------- 1 | 0:00.00 | 6:20.35 | 0 | 28534 2 | 6:20.35 | 6:59.00 | 28535 | 59959 3 | 13:19.35 | 5:54.67 | 59960 | 86576 4 | 19:14.27 | 6:10.34 | 86577 | 114360 5 | 25:24.61 | 10:57.42 | 114361 | 163677 6 | 36:22.28 | 4:06.66 | 163678 | 182193 7 | 40:29.19 | 8:46.38 | 182194 | 221681 8 | 49:15.57 | 8:17.41 | 221682 | 258997 9 | 57:33.23 | 7:27.69 | 258998 | 292591 10 | 65:01.17 | 7:09.26 | 292592 | 324792 11 | 72:10.43 | 7:04.63 | 324793 | 356655
Track 1 Filename C:\Documents and Settings\All Users\Documents\Uploads\Ex\Stan Getz - Quintets-The Clef & Norgram Studio Albums (1952-1955) [FLAC] {HIP-O Select}\Disc 3\01 - It Don't Mean A Thing.wav Pre-gap length 0:00:02.00 Peak level 99.7 % Extraction speed 4.3 X Track quality 100.0 % Test CRC FC01859F Copy CRC FC01859F Track not present in AccurateRip database Copy OK
Track 2 Filename C:\Documents and Settings\All Users\Documents\Uploads\Ex\Stan Getz - Quintets-The Clef & Norgram Studio Albums (1952-1955) [FLAC] {HIP-O Select}\Disc 3\02 - The Varsity Drag.wav Pre-gap length 0:00:02.16 Peak level 100.0 % Extraction speed 5.0 X Track quality 100.0 % Test CRC D4B103B1 Copy CRC D4B103B1 Track not present in AccurateRip database Copy OK
Track 3 Filename C:\Documents and Settings\All Users\Documents\Uploads\Ex\Stan Getz - Quintets-The Clef & Norgram Studio Albums (1952-1955) [FLAC] {HIP-O Select}\Disc 3\03 - Give Me the Simple Life.wav Pre-gap length 0:00:02.37 Peak level 87.0 % Extraction speed 5.5 X Track quality 100.0 % Test CRC 86D9152B Copy CRC 86D9152B Track not present in AccurateRip database Copy OK
Track 4 Filename C:\Documents and Settings\All Users\Documents\Uploads\Ex\Stan Getz - Quintets-The Clef & Norgram Studio Albums (1952-1955) [FLAC] {HIP-O Select}\Disc 3\04 - Oh, Jane Snavely.wav Pre-gap length 0:00:01.72 Peak level 82.9 % Extraction speed 5.9 X Track quality 100.0 % Test CRC DEC9D312 Copy CRC DEC9D312 Track not present in AccurateRip database Copy OK
Track 5 Filename C:\Documents and Settings\All Users\Documents\Uploads\Ex\Stan Getz - Quintets-The Clef & Norgram Studio Albums (1952-1955) [FLAC] {HIP-O Select}\Disc 3\05 - I'll Remember April.wav Pre-gap length 0:00:01.60 Peak level 86.1 % Extraction speed 6.9 X Track quality 100.0 % Test CRC 27FB6D3A Copy CRC 27FB6D3A Track not present in AccurateRip database Copy OK
Track 6 Filename C:\Documents and Settings\All Users\Documents\Uploads\Ex\Stan Getz - Quintets-The Clef & Norgram Studio Albums (1952-1955) [FLAC] {HIP-O Select}\Disc 3\06 - We'll Be Together Again (EP version).wav Pre-gap length 0:00:02.35 Peak level 100.0 % Extraction speed 6.7 X Track quality 100.0 % Test CRC 076B02AE Copy CRC 076B02AE Track not present in AccurateRip database Copy OK
Track 7 Filename C:\Documents and Settings\All Users\Documents\Uploads\Ex\Stan Getz - Quintets-The Clef & Norgram Studio Albums (1952-1955) [FLAC] {HIP-O Select}\Disc 3\07 - We'll Be Together Again (LP version).wav Pre-gap length 0:00:03.29 Peak level 100.0 % Extraction speed 7.6 X Track quality 100.0 % Test CRC 460A257D Copy CRC 460A257D Track not present in AccurateRip database Copy OK
Track 8 Filename C:\Documents and Settings\All Users\Documents\Uploads\Ex\Stan Getz - Quintets-The Clef & Norgram Studio Albums (1952-1955) [FLAC] {HIP-O Select}\Disc 3\08 - Feather Merchant.wav Pre-gap length 0:00:02.37 Peak level 84.1 % Extraction speed 7.2 X Track quality 99.9 % Test CRC DB2F9A7A Copy CRC DB2F9A7A Track not present in AccurateRip database Copy OK
Track 9 Filename C:\Documents and Settings\All Users\Documents\Uploads\Ex\Stan Getz - Quintets-The Clef & Norgram Studio Albums (1952-1955) [FLAC] {HIP-O Select}\Disc 3\09 - Flamingo.wav Pre-gap length 0:00:01.64 Peak level 100.0 % Extraction speed 7.3 X Track quality 99.9 % Test CRC 1FBE9912 Copy CRC 1FBE9912 Track not present in AccurateRip database Copy OK
Track 10 Filename C:\Documents and Settings\All Users\Documents\Uploads\Ex\Stan Getz - Quintets-The Clef & Norgram Studio Albums (1952-1955) [FLAC] {HIP-O Select}\Disc 3\10 - Blue Bells.wav Pre-gap length 0:00:02.60 Peak level 100.0 % Extraction speed 7.5 X Track quality 99.9 % Test CRC F750D73E Copy CRC F750D73E Track not present in AccurateRip database Copy OK
Track 11 Filename C:\Documents and Settings\All Users\Documents\Uploads\Ex\Stan Getz - Quintets-The Clef & Norgram Studio Albums (1952-1955) [FLAC] {HIP-O Select}\Disc 3\11 - Round Up Time.wav Pre-gap length 0:00:02.07 Peak level 100.0 % Extraction speed 7.8 X Track quality 99.9 % Test CRC 81EEA764 Copy CRC 81EEA764 Track not present in AccurateRip database Copy OK
None of the tracks are present in the AccurateRip database
No errors occurred
End of status report
==== Log checksum B127E8E51350F52BE632E096EEF073CAE35E8C4CA11CA8DF0C8BF0E3D23A1585 ====
Содержание индексной карты (.CUE)
CD1
REM GENRE Jazz
REM DISCID 27102913
REM COMMENT "ExactAudioCopy v1.0b1"
PERFORMER "Stan Getz"
TITLE "Stan Getz Quintets (Disc 1)"
FILE "01 - Stella By Starlight.wav" WAVE
  TRACK 01 AUDIO
    TITLE "Stella By Starlight"
    PERFORMER "Stan Getz"
    INDEX 01 00:00:00
  TRACK 02 AUDIO
    TITLE "Time On My Hands"
    PERFORMER "Stan Getz"
    INDEX 00 02:41:41
FILE "02 - Time On My Hands.wav" WAVE
    INDEX 01 00:00:00
  TRACK 03 AUDIO
    TITLE "'Tis Autumn"
    PERFORMER "Stan Getz"
    INDEX 00 02:56:08
FILE "03 - 'Tis Autumn.wav" WAVE
    INDEX 01 00:00:00
  TRACK 04 AUDIO
    TITLE "The Way You Look Tonight"
    PERFORMER "Stan Getz"
    INDEX 00 03:12:38
FILE "04 - The Way You Look Tonight.wav" WAVE
    INDEX 01 00:00:00
  TRACK 05 AUDIO
    TITLE "Lover Come Back To Me"
    PERFORMER "Stan Getz"
    INDEX 00 03:00:61
FILE "05 - Lover Come Back To Me.wav" WAVE
    INDEX 01 00:00:00
  TRACK 06 AUDIO
    TITLE "Body And Soul"
    PERFORMER "Stan Getz"
    INDEX 00 02:55:00
FILE "06 - Body And Soul.wav" WAVE
    INDEX 01 00:00:00
  TRACK 07 AUDIO
    TITLE "Stars Fell On Alabama"
    PERFORMER "Stan Getz"
    INDEX 00 03:14:33
FILE "07 - Stars Fell On Alabama.wav" WAVE
    INDEX 01 00:00:00
  TRACK 08 AUDIO
    TITLE "You Turn the Tables On Me"
    PERFORMER "Stan Getz"
    INDEX 00 03:21:01
FILE "08 - You Turn the Tables On Me.wav" WAVE
    INDEX 01 00:00:00
  TRACK 09 AUDIO
    TITLE "Thanks For The Memory"
    PERFORMER "Stan Getz"
    INDEX 00 02:55:39
FILE "09 - Thanks For The Memory.wav" WAVE
    INDEX 01 00:00:00
  TRACK 10 AUDIO
    TITLE "Hymn Of The Orient"
    PERFORMER "Stan Getz"
    INDEX 00 03:17:10
FILE "10 - Hymn Of The Orient.wav" WAVE
    INDEX 01 00:00:00
  TRACK 11 AUDIO
    TITLE "These Foolish things (Remind Me Of You)"
    PERFORMER "Stan Getz"
    INDEX 00 02:52:52
FILE "11 - These Foolish things (Remind Me Of You).wav" WAVE
    INDEX 01 00:00:00
  TRACK 12 AUDIO
    TITLE "How Deep Is The Ocean"
    PERFORMER "Stan Getz"
    INDEX 00 03:20:16
FILE "12 - How Deep Is The Ocean.wav" WAVE
    INDEX 01 00:00:00
  TRACK 13 AUDIO
    TITLE "Have You Met Miss Jones?"
    PERFORMER "Stan Getz"
    INDEX 00 02:49:00
FILE "13 - Have You Met Miss Jones.wav" WAVE
    INDEX 01 00:00:00
  TRACK 14 AUDIO
    TITLE "Erudition"
    PERFORMER "Stan Getz"
    INDEX 00 03:13:50
FILE "14 - Erudition.wav" WAVE
    INDEX 01 00:00:00
  TRACK 15 AUDIO
    TITLE "Cool Mix"
    PERFORMER "Stan Getz"
    INDEX 00 03:09:13
FILE "15 - Cool Mix.wav" WAVE
    INDEX 01 00:00:00
  TRACK 16 AUDIO
    TITLE "Rustic Hop"
    PERFORMER "Stan Getz"
    INDEX 00 03:03:49
FILE "16 - Rustic Hop.wav" WAVE
    INDEX 01 00:00:00
  TRACK 17 AUDIO
    TITLE "Love And The Weather"
    PERFORMER "Stan Getz"
    INDEX 00 03:45:03
FILE "17 - Love And The Weather.wav" WAVE
    INDEX 01 00:00:00
  TRACK 18 AUDIO
    TITLE "Spring Is Here"
    PERFORMER "Stan Getz"
    INDEX 00 06:29:53
FILE "18 - Spring Is Here.wav" WAVE
    INDEX 01 00:00:00
  TRACK 19 AUDIO
    TITLE "Crazy Rhythm"
    PERFORMER "Stan Getz"
    INDEX 00 06:06:73
FILE "19 - Crazy Rhythm.wav" WAVE
    INDEX 01 00:00:00
[свернуть]
CD2
REM GENRE Jazz
REM DISCID E0116A0F
REM COMMENT "ExactAudioCopy v1.0b1"
PERFORMER "Stan Getz"
TITLE "Stan Getz Quintets (Disc 2)"
FILE "01 - Willow Weep For Me.wav" WAVE
  TRACK 01 AUDIO
    TITLE "Willow Weep For Me"
    PERFORMER "Stan Getz"
    INDEX 01 00:00:00
  TRACK 02 AUDIO
    TITLE "The Nearness Of You"
    PERFORMER "Stan Getz"
    INDEX 00 05:18:05
FILE "02 - The Nearness Of You.wav" WAVE
    INDEX 01 00:00:00
  TRACK 03 AUDIO
    TITLE "Pot Luck"
    PERFORMER "Stan Getz"
    INDEX 00 03:40:48
FILE "03 - Pot Luck.wav" WAVE
    INDEX 01 00:00:00
  TRACK 04 AUDIO
    TITLE "Minor Blues"
    PERFORMER "Stan Getz"
    INDEX 00 03:54:20
FILE "04 - Minor Blues.wav" WAVE
    INDEX 01 00:00:00
  TRACK 05 AUDIO
    TITLE "Fascinating Rhythm"
    PERFORMER "Stan Getz"
    INDEX 00 07:01:08
FILE "05 - Fascinating Rhythm.wav" WAVE
    INDEX 01 00:00:00
  TRACK 06 AUDIO
    TITLE "I don't Know What Time It was"
    PERFORMER "Stan Getz"
    INDEX 00 08:00:25
FILE "06 - I don't Know What Time It was.wav" WAVE
    INDEX 01 00:00:00
  TRACK 07 AUDIO
    TITLE "Tangerine"
    PERFORMER "Stan Getz"
    INDEX 00 07:36:04
FILE "07 - Tangerine.wav" WAVE
    INDEX 01 00:00:00
  TRACK 08 AUDIO
    TITLE "Pot Luck single version"
    PERFORMER "Stan Getz"
    INDEX 00 07:01:50
FILE "08 - Pot Luck single version.wav" WAVE
    INDEX 01 00:00:00
  TRACK 09 AUDIO
    TITLE "It Don't Mean A Thing alternate version"
    PERFORMER "Stan Getz"
    INDEX 00 03:15:64
FILE "09 - It Don't Mean A Thing alternate version.wav" WAVE
    INDEX 01 00:00:00
  TRACK 10 AUDIO
    TITLE "I Hadn't Anyone 'Til You"
    PERFORMER "Stan Getz"
    INDEX 00 06:41:12
FILE "10 - I Hadn't Anyone 'Til You.wav" WAVE
    INDEX 01 00:00:00
  TRACK 11 AUDIO
    TITLE "Down By the Sycamore Tree"
    PERFORMER "Stan Getz"
    INDEX 00 02:50:46
FILE "11 - Down By the Sycamore Tree.wav" WAVE
    INDEX 01 00:00:00
  TRACK 12 AUDIO
    TITLE "With The Wind And The Rain In Your Hair"
    PERFORMER "Stan Getz"
    INDEX 00 03:01:04
FILE "12 - With The Wind And The Rain In Your Hair.wav" WAVE
    INDEX 01 00:00:00
  TRACK 13 AUDIO
    TITLE "Nobody else But Me"
    PERFORMER "Stan Getz"
    INDEX 00 03:46:74
FILE "13 - Nobody else But Me.wav" WAVE
    INDEX 01 00:00:00
  TRACK 14 AUDIO
    TITLE "It hadn't Anyone 'Til You alternate take"
    PERFORMER "Stan Getz"
    INDEX 00 03:32:45
FILE "14 - It hadn't Anyone 'Til You alternate take.wav" WAVE
    INDEX 01 00:00:00
  TRACK 15 AUDIO
    TITLE "Nobody Else But Me alternate take"
    PERFORMER "Stan Getz"
    INDEX 00 03:07:12
FILE "15 - Nobody Else But Me alternate take.wav" WAVE
    INDEX 01 00:00:00
[свернуть]
CD3
REM GENRE Jazz
REM DISCID 8F12930B
REM COMMENT "ExactAudioCopy v1.0b1"
PERFORMER "Stan Getz"
TITLE "Stan Getz Quintets (Disc 3)"
FILE "01 - It Don't Mean A Thing.wav" WAVE
  TRACK 01 AUDIO
    TITLE "It Don't Mean A Thing"
    PERFORMER "Stan Getz"
    INDEX 01 00:00:00
  TRACK 02 AUDIO
    TITLE "The Varsity Drag"
    PERFORMER "Stan Getz"
    INDEX 00 06:18:19
FILE "02 - The Varsity Drag.wav" WAVE
    INDEX 01 00:00:00
  TRACK 03 AUDIO
    TITLE "Give Me the Simple Life"
    PERFORMER "Stan Getz"
    INDEX 00 06:56:38
FILE "03 - Give Me the Simple Life.wav" WAVE
    INDEX 01 00:00:00
  TRACK 04 AUDIO
    TITLE "Oh, Jane Snavely"
    PERFORMER "Stan Getz"
    INDEX 00 05:52:70
FILE "04 - Oh, Jane Snavely.wav" WAVE
    INDEX 01 00:00:00
  TRACK 05 AUDIO
    TITLE "I'll Remember April"
    PERFORMER "Stan Getz"
    INDEX 00 06:08:49
FILE "05 - I'll Remember April.wav" WAVE
    INDEX 01 00:00:00
  TRACK 06 AUDIO
    TITLE "We'll Be Together Again (EP version)"
    PERFORMER "Stan Getz"
    INDEX 00 10:55:07
FILE "06 - We'll Be Together Again (EP version).wav" WAVE
    INDEX 01 00:00:00
  TRACK 07 AUDIO
    TITLE "We'll Be Together Again (LP version)"
    PERFORMER "Stan Getz"
    INDEX 00 04:03:37
FILE "07 - We'll Be Together Again (LP version).wav" WAVE
    INDEX 01 00:00:00
  TRACK 08 AUDIO
    TITLE "Feather Merchant"
    PERFORMER "Stan Getz"
    INDEX 00 08:44:01
FILE "08 - Feather Merchant.wav" WAVE
    INDEX 01 00:00:00
  TRACK 09 AUDIO
    TITLE "Flamingo"
    PERFORMER "Stan Getz"
    INDEX 00 08:15:52
FILE "09 - Flamingo.wav" WAVE
    INDEX 01 00:00:00
  TRACK 10 AUDIO
    TITLE "Blue Bells"
    PERFORMER "Stan Getz"
    INDEX 00 07:25:09
FILE "10 - Blue Bells.wav" WAVE
    INDEX 01 00:00:00
  TRACK 11 AUDIO
    TITLE "Round Up Time"
    PERFORMER "Stan Getz"
    INDEX 00 07:07:19
FILE "11 - Round Up Time.wav" WAVE
    INDEX 01 00:00:00
Скачивание доступно после регистрации!!
Приватный:
Нет (DHT включён)
Размер:
1.03 Гб (1,109,986,188 байт) » файлов: 107
Участники:
5 раздают, 2 качают (7 участников всего)
Внешние участники:
3 раздают, 1 качают (4 участников всего) [ Обновить ]
14:31
148
RSS
Нет комментариев. Ваш будет первым!