Поиск

2001 Clark Tracey - Stability {Linn} [DSD64 ISO]

2001 Clark Tracey - Stability {Linn} [DSD64 ISO]
Стили:
Дата записи диска:
18 декабря - 20 декабря 2000
Место записи:
RG Jones Studios
Дата издания диска:
4 сентября 2001
Издатель (лейбл):
Номер по каталогу:
AKD 159
Битрейт аудио:
lossless
Доп. инфо:

Формат записи/Источник записи: [SACD-R][OF]
Наличие водяных знаков: Нет
Год издания диска: 2001
Продолжительность: 00:56:01
Наличие сканов в содержимом раздачи: Только обложка альбома

Контейнер: ISO (*.iso)
Тип рипа: image
Разрядность: 64(2,8 MHz/1 Bit)
Формат: DSD
Количество каналов: 2.0

Источник: sa-cd.net

Лог проверки качества
foobar2000 1.6.4 / Dynamic Range Meter 1.1.1
log date: 2021-03-10 23:03:05

--------------------------------------------------------------------------------
Analyzed: Clark Tracey / Stability
--------------------------------------------------------------------------------

DR         Peak         RMS     Duration Track
--------------------------------------------------------------------------------
DR13      -8.25 dB   -22.77 dB      5:25 01-Gone
DR13      -7.35 dB   -22.36 dB      5:39 02-Black Coffee
DR13      -7.84 dB   -23.84 dB      6:48 03-Lounge Blues
DR12      -7.95 dB   -22.77 dB      5:49 04-Ugly Beauty
DR10      -8.05 dB   -20.36 dB      4:43 05-Sunshower
DR13      -6.55 dB   -22.04 dB      7:56 06-The Peacocks
DR13      -7.85 dB   -22.97 dB      4:41 07-Giant Steps
DR11     -10.91 dB   -24.65 dB      5:31 08-Stability
DR14      -8.33 dB   -27.34 dB      2:37 09-Melancholia
DR12      -8.85 dB   -22.27 dB      6:53 10-Boaz
--------------------------------------------------------------------------------

Number of tracks:  10
Official DR value: DR12

Samplerate:        2822400 Hz / PCM Samplerate: 352800 Hz
Channels:          2
Bits per sample:   1
Bitrate:           5645 kbps
Codec:             DSD64
================================================================================
No seeders - write personal message to M0p94ok. Any questions - support@pro-jazz.com.
Нет сидеров - пишите в личку M0p94ok. Есть вопросы - support@pro-jazz.com
19:03
89
Нет комментариев. Ваш будет первым!