Поиск

1958 Vardi String Sextet - Sutton Place South (2019) {Audio Fidelity} [24-96]

1958 Vardi String Sextet - Sutton Place South (2019) {Audio Fidelity} [24-96]
Дата издания диска:
22 апреля 1958
Номер по каталогу:
AFLP 1873
Носитель:
WEB
Формат:
PCM
Тип рипа:
tracks
Контейнер:
FLAC (*.flac)
Количество каналов:
2.0
Битрейт аудио:
lossless
Время звучания:
00:36:45
Наличие сканов:
только обложка
Страна-производитель диска (релиза):
USA
Релизёр (источник):
M0p94ok
Лог проверки качества
foobar2000 1.6.2 / Dynamic Range Meter 1.1.1
log date: 2021-05-15 17:13:18

--------------------------------------------------------------------------------
Analyzed: Vardi String Sextet / Sutton Place South
--------------------------------------------------------------------------------

DR         Peak         RMS     Duration Track
--------------------------------------------------------------------------------
DR9       -1.57 dB   -15.36 dB      3:10 01-Laura
DR9       -1.80 dB   -14.43 dB      3:10 02-I Concentrate on You
DR11      -2.85 dB   -17.02 dB      3:09 03-Once in a While
DR11      -3.66 dB   -19.19 dB      3:02 04-Our Love is Here to Stay
DR10      -2.05 dB   -15.89 dB      2:44 05-The Nearness of You
DR10      -3.03 dB   -16.49 dB      3:22 06-Yesterdays
DR8       -4.20 dB   -15.72 dB      3:35 07-In the Still of the Night
DR10      -3.21 dB   -17.15 dB      3:14 08-Autumn Leaves
DR9       -3.30 dB   -15.99 dB      2:47 09-Bewitched
DR10      -3.15 dB   -17.81 dB      2:50 10-Stella by Starlight
DR11      -1.24 dB   -15.63 dB      2:35 11-All the Things You Are
DR9       -2.79 dB   -15.71 dB      3:17 12-Sweet and Lovely
--------------------------------------------------------------------------------

Number of tracks:  12
Official DR value: DR10

Samplerate:        96000 Hz
Channels:          2
Bits per sample:   24
Bitrate:           2275 kbps
Codec:             FLAC
================================================================================
No seeders - write personal message to M0p94ok. Any questions - support@pro-jazz.com.
Нет сидеров - пишите в личку M0p94ok. Есть вопросы - support@pro-jazz.com
17:49
83
Нет комментариев. Ваш будет первым!