Поиск

1978 Chuck Mangione - Children Of Sanchez (2020) {A&M} [24-96]

1978 Chuck Mangione - Children Of Sanchez (2020) {A&M} [24-96]
Издатель (лейбл):
Битрейт аудио:
lossless

Треклист:

01 - Children Of Sanchez 14:09
02 - Lullabye (Instrumental) 03:52
03 - Fanfare (Album Version) 01:09
04 - Pilgrimage (Pt. I) 03:00
05 - Pilgrimage (Pt. II) 02:41
06 - Consuelo's Love Theme (Album Version) 17:02
07 - Hot Consuelo (Album Version) 04:04
08 - Death Scene (Album Version) 04:44
09 - Market Place (Album Version) 03:12
10 - Echano (1978 Album Version) 02:43
11 - Bellavia (1978 Album Version) 03:16
12 - Lullabye (Vocal Version) 03:42
13 - Medley (Chuck Mangione/Children Of Sanchez) (Album Version) 08:22
14 - B'Bye (Album Version) 08:30
15 - Children Of Sanchez (Finale) 03:06

Доп. инфо:

Формат записи/Источник записи: [TR24][OF]
Издание: Remastered
Год издания/переиздания диска: 1978/2020
Продолжительность: 01:23:32
Наличие сканов в содержимом раздачи: Нет

Контейнер: FLAC (*.flac)
Тип рипа: tracks
Разрядность: 24/96
Количество каналов: 2.0

Источник (релизер): HDTracks

Благодаря заглавному треку с латинскими нотками, Children of Sanchez стал еще одним большим хитом для Чака Менджиони. Заглавная песня даже принесла ему Грэмми за лучшее инструментальное поп-исполнение, и серьезные слушатели джаза заметят проблему с этой наградой - это была поп-музыка, а не джаз. Это, конечно, точная оценка музыки Менджиони, поскольку на альбоме вообще не так много импровизаций. Вместо этого есть выбор инструментальных композиций с испанскими и латинскими нотками, аранжированных так, чтобы создать впечатление, что альбом представляет собой цикл песен. Если так, то это песенный цикл / концептуальный альбом, который никуда не денется. Тем не менее, здесь достаточно приятной музыки, чтобы удовлетворить поклонников поп-стиля.

Лог проверки качества
foobar2000 1.4.3 / Dynamic Range Meter 1.1.1
log date: 2021-03-01 14:06:23

--------------------------------------------------------------------------------
Analyzed: Chuck Mangione / Children Of Sanchez
--------------------------------------------------------------------------------

DR         Peak         RMS     Duration Track
--------------------------------------------------------------------------------
DR14      -0.20 dB   -17.86 dB     14:10 01-Children Of Sanchez
DR9       -3.46 dB   -17.19 dB      3:50 02-Lullabye (Instrumental)
DR13      -3.31 dB   -22.06 dB      1:07 03-Fanfare
DR13      -0.20 dB   -16.76 dB      2:56 04-Pilgrimage (Pt. I)
DR14      -0.20 dB   -16.83 dB      2:38 05-Pilgrimage (Pt. II)
DR12      -0.20 dB   -15.88 dB     17:02 06-Consuelo's Love Theme
DR11      -0.20 dB   -13.64 dB      4:04 07-Hot Consuelo
DR12      -1.84 dB   -19.80 dB      4:45 08-Death Scene
DR12      -0.20 dB   -13.23 dB      3:10 09-Market Place
DR12      -0.22 dB   -19.01 dB      2:42 10-Echano (1978 Album Version)
DR10      -0.20 dB   -13.83 dB      3:16 11-Bellavia (1978 Album Version)
DR14      -0.20 dB   -20.02 dB      3:39 12-Lullabye (Vocal Version)
DR13      -0.20 dB   -16.04 dB      8:14 13-Medley
DR13      -0.20 dB   -16.32 dB      8:28 14-B'Bye
DR12      -0.20 dB   -14.95 dB      3:04 15-Children Of Sanchez
--------------------------------------------------------------------------------

Number of tracks:  15
Official DR value: DR12

Samplerate:        96000 Hz
Channels:          2
Bits per sample:   24
Bitrate:           2971 kbps
Codec:             FLAC
================================================================================
Приватный:
Нет (DHT включён)
Размер:
1.66 Гб (1,784,989,638 байт) » файлов: 20
Участники:
0 раздают, 0 качают (0 участников всего)
Внешние участники:
14 раздают, 5 качают (19 участников всего) [ Обновить ]
No seeders - write personal message to M0p94ok. Any questions - support@pro-jazz.com.
Нет сидеров - пишите в личку M0p94ok. Есть вопросы - support@pro-jazz.com
16:34
39
Нет комментариев. Ваш будет первым!