Поиск

1961 Teri Thornton - Devil May Care (2019) {RevOla} [24-44.1]

1961 Teri Thornton - Devil May Care (2019) {RevOla} [24-44.1]
Стили:
Дата записи диска:
23 декабря 1960 и 10 января 1961
Место записи:
Plaza Sound Studios, New York City, NY, USA
Дата переиздания диска:
2 июля 2019
Издатель (лейбл):
Носитель:
WEB
Формат:
PCM
Тип рипа:
tracks
Контейнер:
FLAC (*.flac)
Количество каналов:
2.0
Разрядность/ЧД:
24/44,1
Битрейт аудио:
lossless
Время звучания:
00:36:45
Наличие сканов:
только обложка
Страна-производитель диска (релиза):
USA
Релизёр (источник):
M0p94ok
Доп. инфо:

Это первая (из трех) давно вышедших из печати записей Тери Торнтон, наконец доступная широкой публике. Не будет преувеличением сказать, что она, пожалуй, самая талантливая, самобытная, чистая, незаметная певица, которую слушатели никогда не слышали ... до сих пор. Мощный, почти леденящий кровь голос Торнтон выгодно отличается от чистых тонов и вибрато Сары Воун, блюзовой дерзости Дины Вашингтон и некоторых из более задушевных запевов Эбби Линкольн. Проще говоря, вы должны ее услышать один раз, чтобы ей поверить. Будь то печальные баллады или хриплые свингеры, Торнтон полностью уверена и контролирует свои и ваши эмоции. От лучшей версии написанного Бобом Дороу заглавного трека, который вы, вероятно, услышите, до печальной баллады "My Old Flame" или потрясающей "Left Alone", до интересной аранжировки молитвы "What's Your Story, Morning Glory?», - Торнтон бросается к стойке бара. Проверьте ее силу в «Dancing in the Dark» и «I Feel a Song Coming On». Иногда она намеренно идет вразрез с мерами, чтобы добиться большого эффекта. Каждый трек - это шоу, благодаря ее уникально задушевному, драматическому подходу. В мощных, ненавязчивых духовых представлены такие легенды, как трубач Кларк Терри, тромбонист Бритт Вудман и саксофонисты Эрл Уоррен и Селдон Пауэлл. Ритм-секция гитариста Фредди Грина (половина треков, Сэм Херман - остальные), пианиста Винтона Келли, басиста Сэма Джонса и барабанщика Джимми Кобба не ошибаются. Превосходный аранжировщик Норман Симмонс предоставил идеальные ноты. Это важный документ поистине великой джазовой певицы, он незаменим в коллекции каждого серьезного ценителя. Сожалею только о том, что ему нельзя дать несколько горстей ***** звёзд.

https://ie.7digital.com/artist/teri-thornton/release/devil-may-care-12252200?f=426697

Лог проверки качества
foobar2000 1.6.2 / Dynamic Range Meter 1.1.1
log date: 2021-05-15 15:54:52

--------------------------------------------------------------------------------
Analyzed: Teri Thornton / Devil May Care
--------------------------------------------------------------------------------

DR         Peak         RMS     Duration Track
--------------------------------------------------------------------------------
DR11      -0.86 dB   -14.85 dB      2:47 01-Lullaby of the Leaves (Remastered)
DR10      -1.30 dB   -14.43 dB      2:45 02-Devil May Care (Remastered)
DR11      -1.72 dB   -16.58 dB      3:07 03-Detour Ahead (Remastered)
DR11       0.00 dB   -13.92 dB      2:31 04-The Song Is You (Remastered)
DR10      -2.38 dB   -15.58 dB      3:27 05-My Old Flame (Remastered)
DR11      -1.68 dB   -15.15 dB      3:45 06-What's Your Story, Morning Glory (Remastered)
DR11      -1.24 dB   -14.49 dB      2:29 07-Dancing in the Dark (Remastered)
DR11      -1.77 dB   -17.51 dB      3:25 08-Left Alone (Remastered)
DR12      -0.99 dB   -16.59 dB      3:08 09-Blue Champagne (Remastered)
DR9       -0.40 dB   -13.33 dB      2:39 10-I Feel a Song Comin' On (Remastered)
DR10      -1.22 dB   -14.98 dB      4:08 11-What's New? (Remastered)
DR12       0.00 dB   -14.85 dB      2:33 12-Blue Skies (Remastered)
--------------------------------------------------------------------------------

Number of tracks:  12
Official DR value: DR11

Samplerate:        44100 Hz
Channels:          2
Bits per sample:   24
Bitrate:           1613 kbps
Codec:             FLAC
================================================================================
No seeders - write personal message to M0p94ok. Any questions - support@pro-jazz.com.
Нет сидеров - пишите в личку M0p94ok. Есть вопросы - support@pro-jazz.com
16:13
114
16:14