Поиск

1969 Ibrahim Khalil Shihab Quintet - Spring (2020) {Matsuli Music} [24-96]

1969 Ibrahim Khalil Shihab Quintet - Spring (2020) {Matsuli Music} [24-96]
Дата переиздания диска:
7 декабря 2020
Битрейт аудио:
lossless
Треклист:

01 - Spring 10:32
02 - Before the Rain and After 03:33
03 - Look Up 03:28
04 - The Birds 10:11
05 - You Don't Know What Love Is 08:13

Доп. инфо:

Формат записи/Источник записи: [TR24][OF]
Год издания/переиздания диска: 1969/2020
Издатель (лейбл): Matsuli Music
Продолжительность: 00:35:57
Наличие сканов в содержимом раздачи: Буклет PDF

Контейнер: FLAC (*.flac)
Тип рипа: tracks
Разрядность: 24/96
Количество каналов: 2.0

Источник (релизер): Bandcamp

Утерянная история джаза в Южной Африке содержит множество классических произведений, о которых никто не знает. Но даже в рамках этой скрытой традиции мало альбомов, постигших такую ​​неудачную судьбу, как Spring, монументальный дебютный альбом 1968 года пианиста Ибрагима Халила Шихаба, ранее Криса Шильдера.

Хотя Шихабу было всего двадцать два, когда был записан Spring, он уже был краеугольным камнем кейптаунской сцены, и альбом должен был стать его первым крупным заявлением в качестве лидера и композитора. Это грандиозный опус, украшенный будущим саксофонистом Уинстоном «Манкунку» Нгози, который вскоре получил признание благодаря своему хит-альбому «Яхал» Инкомо.

Три месяца гастролей по южной Африке в 1968 году довели группу до такой степени, что весь этот альбом был записан всего за два часа отведенного студийного времени. Этот альбом был подвергнут репрессии всего один раз, прежде чем мастер-записи были уничтожены невежественным руководителем звукозаписывающей компании. Хотя с тех пор он не переиздавался, альбом был «сохранен» в качестве «дополнения» к компакт-диску Манкунку «Яхал» Инкомо 1996 года. В результате многие любители современного джаза до сих пор ошибочно полагают, что эти пять произведений принадлежат Яхаль Инкомо.

Этим выпуском Spring Matsuli Music исправляет историческую ошибку. Это издание ошеломляющего дебюта Шихаба, выпущенное с благословения самого человека, впервые за более чем сорок лет стало доступным надлежащим образом, и впервые оно было доступно за пределами Южной Африки. Отреставрированный и дополненный новыми заметками Valmont Layne, Spring теперь можно увидеть таким, какой он есть: несравненный шедевр Cape Jazz, благословленный присутствием великого Манкунку, но по-настоящему оживленный тонким видением и оригинальным музыкальным духом его создатель Ибрагим Халил Шихаб.

Лог проверки качества
foobar2000 1.4.1 / Dynamic Range Meter 1.1.1
log date: 2020-12-19 12:55:48

--------------------------------------------------------------------------------
Analyzed: Ibrahim Khalil Shihab Quintet / Spring
--------------------------------------------------------------------------------

DR         Peak         RMS     Duration Track
--------------------------------------------------------------------------------
DR11      -0.48 dB   -13.89 dB     10:33 01-Spring
DR10      -0.54 dB   -12.13 dB      3:33 02-Before the Rain and After
DR10      -0.91 dB   -13.16 dB      3:28 03-Look Up
DR10      -1.11 dB   -13.11 dB     10:11 04-The Birds
DR11      -0.95 dB   -14.38 dB      8:13 05-You Don't Know What Love Is
--------------------------------------------------------------------------------

Number of tracks:  5
Official DR value: DR10

Samplerate:        96000 Hz
Channels:          2
Bits per sample:   24
Bitrate:           2536 kbps
Codec:             FLAC
================================================================================
Приватный:
Нет (DHT включён)
Размер:
701.10 Мб (735,156,522 байт) » файлов: 11
Участники:
0 раздают, 5 качают (5 участников всего)
Внешние участники:
7 раздают, 2 качают (9 участников всего) [ Обновить ]
No seeders - write personal message to M0p94ok. Нет сидеров - пишите в личку M0p94ok.
13:49
39
Нет комментариев. Ваш будет первым!